<?xml version="1.0" standalone="no"?>
<!DOCTYPE svg PUBLIC "-//W3C//DTD SVG 1.1//EN" "http://www.w3.org/Graphics/SVG/1.1/DTD/svg11.dtd" >
<svg xmlns="http://www.w3.org/2000/svg">
<metadata>
This is a custom SVG font generated by IcoMoon.
<iconset grid="16"></iconset>
</metadata>
<defs>
<font id="canvas-webfont" horiz-adv-x="512" >
<font-face units-per-em="512" ascent="480" descent="-32" />
<missing-glyph horiz-adv-x="512" />
<glyph unicode="&#xe089;" d="M 164.693,79.787L 221.013,79.787L 221.013-5.547L 164.693-5.547zM 348.266,451.84L 104.875,451.84 c-15.773,0.00-28.928-12.423-28.928-28.18L 75.947,24.183 c0.00-15.773, 14.938-29.73, 30.71-29.73L 137.387-5.547 l0.00,86.796 L 137.387,112.213 l 27.307,0.00 
		l0.00,27.307 l 29.013,0.00 l0.00,29.013 l-29.013,0.00 l0.00,27.307 l 29.013,0.00 l0.00,25.60 l-29.013,0.00 l0.00,29.013 l 29.013,0.00 l0.00,27.307 l-29.013,0.00 l0.00,29.013 l 29.013,0.00 l0.00,27.307 l-29.013,0.00 l0.00,32.427 l 29.013,0.00 l0.00,29.013 l-29.013,0.00 l0.00,27.307 l 29.013,0.00 l0.00-27.307 l 27.307,0.00 l0.00-29.013 l-27.307,0.00 l0.00-32.427 l 27.307,0.00 l0.00-27.307 l-27.307,0.00 l0.00-29.013 l 27.307,0.00 l0.00-27.307 l-27.307,0.00 l0.00-29.013 
		l 27.307,0.00 l0.00-25.60 l-27.307,0.00 l0.00-27.307 l 27.307,0.00 l0.00-29.013 l-27.307,0.00 l0.00-27.307 l 52.907,0.00 l0.00-30.964 L 246.613-5.547 l 156.937,0.00 c 15.766,0.00, 29.09,13.957, 29.09,29.73L 432.64,366.592 L 348.266,451.84z M 403.55,334.08l-57.069,0.00 
		c0.00,0.00-29.894,2.64-29.894,32.512L 316.587,423.66 c0.00,0.00, 16.73,12.484, 29.213,0.00l 57.411-59.057C 403.21,364.604, 424.503,334.08, 403.55,334.08z"  />
<glyph unicode="&#xe001;" d="M 311.467,308.48L 398.517,308.48L 256.00,450.995L 113.483,308.48L 198.827,308.48L 198.827,137.813L 113.483,137.813L 256.00-4.702L 398.517,137.813L 311.467,137.813 z"  />
<glyph unicode="&#xe002;" d="M 421.361,398.293c 3.347,3.331, 5.134,6.818, 5.134,10.409c0.00,22.956-72.658,41.684-163.633,42.585
	c-2.287,0.031-4.572,0.044-6.861,0.038c-94.153,0.00-170.493-19.091-170.493-42.622c0.00-3.596, 1.792-7.088, 5.149-10.424
	c-0.266-1.249-0.416-2.511-0.416-3.782c0.00-56.83, 99.453-106.948, 99.453-170.493c0.00-56.832-99.453-85.246-99.453-170.493
	c0.00-42.457, 83.234-56.663, 165.76-56.834c 83.224-0.167, 165.762,14.044, 165.762,56.834c0.00,85.246-99.451,113.662-99.451,170.493
	c0.00,63.546, 99.451,113.662, 99.451,170.493C 421.762,395.773, 421.617,397.039, 421.361,398.293z M 222.855,224.00
	c0.00,20.333-8.428,39.287-21.052,57.527c 17.212-18.241, 32.401-37.187, 32.401-57.527c0.00-21.897, 28.194-93.657, 10.047-112.00
	c-23.503-23.736-94.694-47.473-115.625-55.572C 130.749,139.407, 222.855,167.823, 222.855,224.00z M 383.416,54.009
	c-24.424,3.92-88.074,30.92-114.86,57.991c-18.123,18.313, 9.24,90.132, 9.24,112.00c0.00,20.538, 15.357,39.666, 32.78,58.078
	c-12.836-18.408-21.432-37.54-21.432-58.078C 289.147,167.284, 383.043,138.863, 383.416,54.009z M 333.433,310.301
	c-0.16-0.174-0.314-0.348-0.466-0.522c-48.99-1.712-57.24-22.275-76.076-21.844c-20.489,0.457-28.861,20.183-76.943,20.825
	c-0.459,0.514-0.916,1.029-1.379,1.541c-20.965,23.289-41.523,45.967-47.937,69.521c 0.009-0.002, 0.019-0.005, 0.029-0.007
	c 1.92-0.521, 3.891-1.029, 5.908-1.526c 0.044-0.01, 0.09-0.022, 0.135-0.032c 1.999-0.49, 4.045-0.966, 6.137-1.432
	c 0.06-0.012, 0.119-0.027, 0.177-0.039c 2.092-0.463, 4.229-0.913, 6.409-1.352c 0.056-0.012, 0.113-0.024, 0.169-0.034
	c 2.202-0.44, 4.444-0.867, 6.733-1.28c 0.034-0.007, 0.068-0.012, 0.102-0.019c 9.315-1.678, 19.331-3.128, 29.925-4.314
	c 0.051-0.005, 0.102-0.012, 0.155-0.017c 2.562-0.287, 5.158-0.558, 7.786-0.812c 0.162-0.015, 0.324-0.031, 0.488-0.046
	c 2.529-0.244, 5.089-0.473, 7.677-0.686c 0.232-0.019, 0.463-0.038, 0.696-0.056c 2.534-0.207, 5.096-0.399, 7.682-0.575
	c 0.271-0.019, 0.543-0.038, 0.814-0.055c 2.563-0.174, 5.152-0.331, 7.762-0.473c 0.29-0.017, 0.579-0.032, 0.867-0.048
	c 2.616-0.138, 5.257-0.263, 7.916-0.372c 0.282-0.01, 0.563-0.024, 0.845-0.036c 2.705-0.106, 5.432-0.198, 8.178-0.275
	c 0.229-0.005, 0.457-0.014, 0.688-0.019c 2.831-0.075, 5.685-0.133, 8.557-0.172c 0.145-0.002, 0.29-0.005, 0.435-0.007
	c 3.014-0.039, 6.047-0.061, 9.10-0.061s 6.083,0.02, 9.10,0.061c 0.147,0.002, 0.29,0.003, 0.437,0.007
	c 2.874,0.039, 5.724,0.097, 8.557,0.172c 0.23,0.005, 0.461,0.014, 0.689,0.019c 2.743,0.075, 5.472,0.167, 8.177,0.275
	c 0.282,0.01, 0.563,0.024, 0.843,0.036c 2.661,0.109, 5.299,0.234, 7.917,0.372c 0.29,0.015, 0.58,0.032, 0.87,0.048
	c 2.608,0.142, 5.197,0.299, 7.76,0.473c 0.27,0.017, 0.546,0.036, 0.817,0.055c 2.587,0.177, 5.144,0.369, 7.675,0.575
	c 0.236,0.019, 0.468,0.038, 0.703,0.056c 2.586,0.213, 5.142,0.442, 7.668,0.686c 0.166,0.015, 0.329,0.031, 0.493,0.046
	c 2.623,0.254, 5.217,0.526, 7.776,0.812c 0.055,0.005, 0.111,0.012, 0.169,0.019c 10.586,1.186, 20.598,2.635, 29.906,4.313
	c 0.043,0.007, 0.09,0.017, 0.131,0.024c 2.277,0.411, 4.509,0.836, 6.70,1.275c 0.068,0.014, 0.135,0.026, 0.203,0.039
	c 2.169,0.435, 4.296,0.884, 6.374,1.345c 0.07,0.015, 0.14,0.031, 0.21,0.046c 2.082,0.463, 4.116,0.937, 6.103,1.423
	c 0.055,0.012, 0.109,0.027, 0.167,0.039c 2.007,0.493, 3.966,0.998, 5.873,1.516c 0.017,0.003, 0.034,0.009, 0.048,0.012
	C 374.956,356.268, 354.40,333.59, 333.433,310.301z"  />
<glyph unicode="&#xe003;" d="M 75.947,453.547l0.00-164.161 l 18.848,13.298c 4.388,28.733, 15.002,50.62, 31.667,66.135c 11.877,11.11, 21.565,18.167, 47.809,18.167L 207.36,386.987 
	l0.00-293.755 c0.00-19.538, 3.651-39.67, 1.541-44.268c-2.872-6.508-6.898-10.737-11.88-13.42c-6.897-4.021-11.447-6.956-22.75-6.956L 140.80,28.588 l0.00-34.133 
	l 230.40,0.00 l0.00,33.393 l-23.057,1.295c-11.11,0.00-20.052,1.869-26.469,5.601c-6.419,3.734-10.825,8.093-13.029,13.073
	c-2.202,4.983-3.369,17.19-3.369,37.113L 305.039,386.987l 32.693,0.00 c 18.196,0.00, 27.453-3.226, 34.736-6.673c 13.027-6.321, 23.308-14.677, 30.778-25.31
	s 14.362-28.052, 20.49-52.379l 12.317-13.239L 436.053,453.547 L 75.947,453.547 z"  />
<glyph unicode="&#xe004;" d="M 458.873,237.276L 242.686,451.84L 61.399,451.84 L 24.747,417.932L 24.747,238.899 l 217.068-216.189c 36.031-36.029, 72.501-36.029, 108.529,0.00
	l 108.314,107.281C 494.686,166.023, 494.903,201.243, 458.873,237.276z M 141.346,339.325c-14.85-14.851-38.953-14.851-53.803,0.00
	c-14.884,14.85-14.884,38.845,0.00,53.697c 14.85,14.846, 38.953,14.846, 53.803,0.00C 156.196,378.17, 156.196,354.174, 141.346,339.325z"  />
<glyph unicode="&#xe005;" d="M 429.725,453.547c-28.908,0.00-317.974,0.00-346.88,0.00S 24.747,426.098, 24.747,397.227s0.00-317.582,0.00-346.453c0.00-28.87, 29.191-58.027, 58.098-58.027
	s 317.972,0.00, 346.88,0.00c 28.906,0.00, 55.822,29.157, 55.822,58.027c0.00,28.872,0.00,317.582,0.00,346.453S 458.631,453.547, 429.725,453.547z M 427.974,23.427
	l-349.334-0.056c0.00,0.00-24.699,27.406-24.699,56.277c 12.648,12.066, 26.819,17.594, 93.778,27.462c 66.988,9.895, 68.596,45.112, 70.798,43.983
	c-0.394,13.363-1.693,32.113-1.693,32.113s-26.141,14.747-36.415,43.953c-21.565,8.656-18.715,14.21-20.804,25.404
	c0.00,0.00, 2.485,45.307, 17.05,44.377c0.00,0.00, 11.716,0.00, 9.402,10.404c-0.79,17.341-0.48,20.978, 0.678,32.538
	c 1.157,11.559, 6.125,42.771, 30.432,47.394c 24.306,4.596, 5.533,2.284, 13.607,3.468c 8.131,1.128-5.024,5.78, 9.993,5.78l 24.052,4.99
	c 15.017,0.00, 24.672-20.948, 32.802-22.105c 8.073-1.155, 2.767,3.524, 19.367,0.451c 24.334-4.622, 17.333-37.668, 18.459-49.227
	c 1.186-11.559, 1.951-15.169-0.367-25.60c-2.313-10.404, 17.56-9.248, 17.56-9.248c 17.36,0.00, 10.103-44.378, 10.103-44.378
	c-2.679-11.757-8.834-13.165-24.982-23.373c-10.276-29.237-31.843-47.142-31.843-47.142s-2.372-22.301-2.483-27.573
	c 0.48-2.058-4.178-36.313, 62.812-46.21c 66.987-9.866, 79.749-15.396, 92.394-27.462C 458.631,50.773, 427.974,23.427, 427.974,23.427z"  />
<glyph unicode="&#xe006;" d="M 255.351,452.207l 78.109-141.657l 158.874-30.554l-110.583-118.077l 20.067-160.495l-146.464,68.688l-146.463-68.688l 20.065,160.495
	L 18.367,279.996l 158.872,30.554L 255.351,452.207"  />
<glyph unicode="&#xe007;" d="M 253.621,371.767c-82.043,0.00-148.541-66.499-148.541-148.528c0.00-82.043, 66.499-148.543, 148.541-148.543
	c 82.028,0.00, 148.528,66.50, 148.528,148.543C 402.15,305.268, 335.65,371.767, 253.621,371.767z M 225.799,133.729
	c-26.315,32.524-57.289,57.303-78.957,65.031l 51.094,30.974l 24.767-48.00c0.00,0.00, 40.267,97.546, 103.752,130.057
	c-1.548-23.217-7.743-43.351, 3.094-68.116C 301.674,237.483, 244.384,167.803, 225.799,133.729z M 454.24,195.68
	c 15.636,0.00, 28.32,12.682, 28.32,28.319c0.00,15.642-12.684,28.32-28.32,28.32c-0.678,0.00-1.343-0.055-2.01-0.101
	c-2.255,15.838-6.378,31.072-12.15,45.472c 0.591,0.288, 1.179,0.567, 1.753,0.898c 13.551,7.827, 18.198,25.139, 10.373,38.69
	c-7.815,13.551-25.139,18.185-38.692,10.371c-0.587-0.34-1.135-0.719-1.688-1.094c-9.733,12.361-20.91,23.535-33.27,33.27
	c 0.374,0.553, 0.753,1.103, 1.096,1.69c 7.811,13.551, 3.178,30.863-10.371,38.69c-13.549,7.813-30.863,3.181-38.692-10.371
	c-0.331-0.577-0.608-1.167-0.894-1.754c-14.401,5.769-29.636,9.892-45.474,12.151c 0.043,0.666, 0.101,1.329, 0.101,2.007
	c0.00,15.64-12.682,28.32-28.32,28.32c-15.64,0.00-28.319-12.681-28.319-28.32c0.00-0.678, 0.055-1.341, 0.101-2.007
	c-15.838-2.258-31.072-6.381-45.472-12.15c-0.288,0.587-0.567,1.178-0.898,1.754c-7.827,13.551-25.139,18.183-38.69,10.371
	c-13.551-7.827-18.185-25.139-10.371-38.69c 0.34-0.587, 0.719-1.137, 1.092-1.69c-12.36-9.735-23.535-20.908-33.27-33.27
	c-0.553,0.374-1.103,0.753-1.69,1.094c-13.551,7.813-30.863,3.181-38.69-10.371c-7.813-13.551-3.181-30.863, 10.371-38.69
	c 0.577-0.331, 1.167-0.611, 1.754-0.898c-5.769-14.401-9.892-29.635-12.151-45.472c-0.666,0.046-1.329,0.101-2.007,0.101
	c-15.64,0.00-28.32-12.679-28.32-28.32c0.00-15.638, 12.681-28.319, 28.32-28.319c 0.678,0.00, 1.341,0.055, 2.007,0.101
	c 2.258-15.834, 6.381-31.072, 12.151-45.476c-0.589-0.287-1.178-0.561-1.754-0.893c-13.551-7.828-18.183-25.139-10.371-38.692
	c 7.827-13.551, 25.139-18.181, 38.69-10.371c 0.587,0.34, 1.137,0.72, 1.69,1.097c 9.735-12.361, 20.908-23.537, 33.27-33.273
	c-0.374-0.551-0.753-1.103-1.094-1.686c-7.813-13.549-3.181-30.877, 10.371-38.692c 13.551-7.823, 30.863-3.176, 38.69,10.371
	c 0.333,0.575, 0.611,1.167, 0.899,1.753c 14.399-5.77, 29.633-9.894, 45.471-12.146c-0.046-0.669-0.101-1.331-0.101-2.01
	c0.00-15.64, 12.679-28.322, 28.319-28.322c 15.638,0.00, 28.32,12.682, 28.32,28.322c0.00,0.676-0.055,1.341-0.101,2.01
	c 15.834,2.253, 31.068,6.376, 45.472,12.146c 0.29-0.589, 0.565-1.178, 0.896-1.753c 7.828-13.548, 25.139-18.195, 38.692-10.371
	c 13.551,7.815, 18.181,25.137, 10.371,38.692c-0.34,0.587-0.72,1.135-1.097,1.686c 12.361,9.737, 23.537,20.912, 33.273,33.273
	c 0.551-0.377, 1.103-0.754, 1.686-1.097c 13.549-7.81, 30.877-3.18, 38.692,10.371c 7.825,13.551, 3.178,30.863-10.373,38.692
	c-0.573,0.331-1.166,0.606-1.751,0.893c 5.77,14.401, 9.894,29.64, 12.146,45.476C 452.896,195.734, 453.562,195.68, 454.24,195.68z
	 M 253.621,55.946c-60.122,0.00-112.898,31.452-142.787,78.793c-0.544,1.459-1.186,2.903-1.993,4.301c-0.92,1.597-1.98,3.055-3.14,4.398
	c-12.051,21.886-19.383,46.735-20.627,73.175c 0.637,2.36, 1.007,4.825, 1.007,7.386c0.00,2.623-0.386,5.152-1.053,7.562
	c 1.031,25.639, 7.779,49.806, 19.012,71.258c 1.83,1.78, 3.463,3.818, 4.801,6.141c 1.302,2.255, 2.227,4.617, 2.855,7.016
	c 13.827,21.444, 32.379,39.555, 54.188,52.855c 1.758,0.592, 3.485,1.362, 5.154,2.326c 1.493,0.862, 2.86,1.855, 4.134,2.93
	c 23.438,12.331, 50.125,19.319, 78.447,19.319c 93.189,0.00, 168.731-75.544, 168.731-168.731C 422.354,131.49, 346.81,55.946, 253.621,55.946z"  />
<glyph unicode="&#xe008;" d="M 420.987,268.122c-3.78,13.737-9.175,26.783-16.067,38.898c 8.233,10.447, 35.62,48.304, 16.232,67.715l-10.004,10.592
	c-16.577,16.55-59.337-7.526-70.313-14.157c-12.334,7.016-25.62,12.378-39.625,16.166c-2.277,13.848-12.061,61.09-39.422,61.09l-10.988,0.00 
	c-23.538,0.00-37.065-48.94-40.129-61.44c-13.785-3.842-26.87-9.288-39.013-16.27c-10.127,7.165-51.236,34.142-71.011,14.365l-10.576-8.878
	c-17.183-17.198, 11.732-61.559, 17.591-70.129c-6.697-11.947-12.751-24.772-16.435-38.274c-11.757-1.886-61.36-11.424-61.36-39.607l0.00-10.989 
	c0.00-24.303, 51.56-37.919, 61.607-40.373c 3.75-13.44, 9.484-26.213, 16.224-38.098c-5.811-9.571-31.877-55.228-14.855-72.253l 10.11-8.335
	c 22.67-22.654, 69.10,15.524, 69.10,15.524l-1.749,1.884c 12.45-7.31, 25.919-13.897, 40.127-17.882
	c 2.541-10.342, 16.167-61.508, 40.369-61.508l 10.988,0.00 c 32.038,0.00, 39.994,60.614, 39.994,60.614l-2.13,0.466
	c 14.295,3.717, 27.856,9.45, 40.436,16.524c 10.139-6.787, 50.004-31.553, 66.596-14.986l 11.134,11.184
	c 21.649,21.647-10.156,64.461-13.03,68.221c 6.932,12.126, 12.314,25.207, 16.123,38.961c 12.873,3.171, 61.223,16.672, 61.223,40.062l0.00,10.988 
	C 482.133,258.722, 426.257,267.375, 420.987,268.122z M 255.512,145.043c-42.319,0.00-76.607,35.379-76.607,77.67
	c0.00,42.319, 34.289,76.609, 76.607,76.609c 42.289,0.00, 78.228-34.29, 78.228-76.609C 333.742,180.425, 297.801,145.043, 255.512,145.043z"  />
<glyph unicode="&#xe009;" d="M 250.865,419.722c 109.298,0.00, 209.684-97.92, 209.684-211.197c0.00-113.277-100.386-211.884-209.684-211.884
	c-77.914,0.00-145.30,37.14-177.596,104.924c-13.015,27.375, 40.665,39.103, 52.879,15.539c 25.107-46.655, 71.869-54.605, 124.715-54.605
	c 79.563,0.00, 147.82,67.676, 147.82,146.026c0.00,81.108-69.564,148.13-147.82,148.13c-64.445,0.00-73.45-35.543-75.119-33.765
	c 16.719-17.719, 63.01-74.757, 63.01-74.757c 22.835-23.671-0.836-28.573-0.836-28.573l-173.363,1.686c-16.684-2.775-12.689,16.302-12.689,16.302
	l 0.164,205.078c 0.328,24.47, 22.692-10.274, 22.692-10.274l 55.439-59.271C 130.162,373.084, 172.46,421.064, 250.865,419.722z"  />
<glyph unicode="&#xe00a;" d="M 25.672,226.306c0.00,0.00, 121.955,138.74, 191.928,197.158l0.00-116.835 c0.00,0.00, 266.721,0.00, 266.721-272.62c0.00,0.00-99.468,195.871-266.721,116.838
	l0.00-116.838 C 205.653,34.009, 25.672,226.306, 25.672,226.306z"  />
<glyph unicode="&#xe00b;" d="M 416.874,62.70L 484.693-5.547L 294.40-5.547 l0.00,4.687 l0.00,75.599 l0.00,111.145 l 70.521-70.663c 28.083,27.824, 45.855,66.048, 45.855,108.78
	c0.00,72.137-49.816,132.214-116.376,149.262L 294.40,448.858 c 107.52-18.237, 190.435-111.823, 190.435-225.072
	C 484.835,160.565, 458.395,103.924, 416.874,62.70z M 27.165,224.00c0.00,63.222, 26.37,119.224, 67.891,160.447L 27.307,451.84l 190.293,0.00 l0.00-2.982 l0.00-75.597 
	l0.00-111.147 L 147.077,332.781C 118.992,304.959, 101.222,266.732, 101.222,224.00c0.00-72.141, 49.818-132.214, 116.378-149.262l0.00-75.599 
	C 110.08,17.381, 27.165,110.751, 27.165,224.00z"  />
<glyph unicode="&#xe00c;" d="M 254.609,307.116c-19.702,0.00-35.415-6.806-47.142-20.451
		c-11.742-13.647-17.604-34.043-17.604-61.222c0.00-31.788, 8.404-54.55, 25.202-68.306c 10.865-8.892, 23.898-13.368, 39.071-13.368
		c 5.70,0.00, 11.201,0.696, 16.48,2.06c 2.893,0.748, 5.724,1.138, 10.257,3.028l-29.428,31.232l 30.01,26.906l 28.623-31.101
		c 3.782,7.533, 3.726,14.145, 5.224,19.814c 2.389,8.503, 3.56,18.427, 3.56,29.735c0.00,26.037-5.446,46.131-16.396,60.358
		C 291.569,300.03, 275.591,307.116, 254.609,307.116zM 256.00,451.649C 130.282,451.649, 28.351,349.718, 28.351,224.00
		c0.00-125.716, 101.931-227.649, 227.649-227.649c 125.716,0.00, 227.649,101.932, 227.649,227.649C 483.649,349.718, 381.716,451.649, 256.00,451.649z
		 M 341.062,89.723l-28.593,26.428c-8.724-5.169-13.59-6.144-19.954-8.257c-10.667-3.446-23.426-5.193-38.291-5.193
		c-31.029,0.00-56.665,9.032-76.921,27.064c-24.564,21.702-36.835,53.605-36.835,95.679c0.00,42.406, 12.588,74.417, 37.78,96.148
		c 20.548,17.731, 46.116,26.622, 76.682,26.622c 30.778,0.00, 56.59-9.392, 77.491-28.175c 24.119-21.733, 36.183-52.106, 36.183-91.122
		c0.00-20.675-2.618-37.989-7.786-51.939c-4.166-13.31-8.559-22.564-16.725-31.374l 27.343-25.095L 341.062,89.723z"  />
<glyph unicode="&#xe00d;" d="M 287.935-32.00L 192.00-32.00 L 192.00,224.00 l-64.00,0.00 l0.00,88.225 l 64.00,0.029l-0.104,51.976C 191.896,436.206, 211.413,480.00, 296.195,480.00l 70.588,0.00 l0.00-88.242 l-44.115,0.00 
	c-33.016,0.00-34.603-12.328-34.603-35.342l-0.131-44.162l 79.345,0.00 l-9.352-88.225L 288.00,224.00L 287.935-32.00z"  />
<glyph unicode="&#xe00e;" d="M 256.00,450.922c-125.423,0.00-227.115-101.693-227.115-227.116c0.00-125.421, 101.692-227.115, 227.115-227.115
	s 227.115,101.693, 227.115,227.115C 483.115,349.228, 381.423,450.922, 256.00,450.922z M 264.262,378.119c 6.294,6.321, 13.949,9.537, 22.956,9.537
	c 9.177,0.00, 16.913-3.215, 23.177-9.537c 6.294-6.376, 9.428-14.083, 9.428-23.066c0.00-9.039-3.164-16.746-9.54-23.067
	c-6.349-6.376-14.027-9.537-23.067-9.537c-8.87,0.00-16.466,3.161-22.847,9.537c-6.347,6.321-9.523,14.029-9.523,23.067
	C 254.85,364.035, 257.997,371.743, 264.262,378.119z M 223.563,61.566c-9.619,0.00-15.607,9.813-19.267,18.266
	c-3.133,7.183-2.901,15.307-2.901,23.593c0.00,5.463, 1.249,12.421, 3.773,20.85l 30.829,106.018c 2.953,10.202, 4.436,17.882, 4.436,23.066
	c0.00,3.244-1.417,6.127-4.214,8.651c-2.813,2.495-6.654,3.77-11.532,3.77c-2.219,0.00-4.881-0.084-7.985-0.222l 2.883,9.397l 75.172,14.751l 13.312,0.00 
	l-45.467-160.247c-2.499-9.037-3.772-15.205-3.772-18.007c0.00-1.635, 0.662-3.294, 1.997-4.681c 1.326-1.413, 2.739-2.173, 4.215-2.173
	c 2.522,0.00, 5.043,1.08, 7.54,3.297c 6.651,5.461, 14.636,15.341, 23.955,29.703l 24.34-11.124
	C 298.583,87.578, 264.929,61.566, 223.563,61.566z"  />
<glyph unicode="&#xe00f;" d="M 426.656,480.00L 85.344,480.00 C 38.406,480.00,0.00,441.594,0.00,394.657l0.00-341.313 C0.00,6.376, 38.407-32.00, 85.344-32.00l 341.312,0.00 
	C 473.593-32.00, 512.00,6.376, 512.00,53.344L 512.00,394.656 C 511.997,441.594, 473.593,480.00, 426.656,480.00z M 157.395,51.365L 79.969,51.365 L 79.969,284.329 l 77.426,0.00 L 157.395,51.365 z
	 M 118.684,316.121l-0.508,0.00 c-25.983,0.00-42.788,17.898-42.788,40.266c0.00,22.846, 17.313,40.248, 43.803,40.248
	c 26.486,0.00, 42.791-17.396, 43.296-40.248C 162.487,334.027, 145.678,316.121, 118.684,316.121z M 436.611,51.365l-77.426,0.00 L 359.185,176.003 
	c0.00,31.308-11.205,52.669-39.219,52.669c-21.396,0.00-34.144-14.406-39.73-28.318c-2.041-4.979-2.548-11.924-2.548-18.883l0.00-130.104 
	l-77.443,0.00 c0.00,0.00, 1.018,211.103,0.00,232.963l 77.436,0.00 l0.00-33.00 c 10.283,15.864, 28.672,38.479, 69.785,38.479c 50.951,0.00, 89.146-33.309, 89.146-104.856
	L 436.612,51.365 L 436.611,51.365z"  />
<glyph unicode="&#xe010;" d="M 512.00,382.791c-18.838-8.354-39.082-14.001-60.33-16.54c 21.686,13.00, 38.343,33.585, 46.186,58.115
	c-20.298-12.039-42.778-20.78-66.705-25.49c-19.16,20.415-46.461,33.17-76.673,33.17c-58.011,0.00-105.044-47.029-105.044-105.039
	c0.00-8.233, 0.929-16.25, 2.72-23.939c-87.30,4.382-164.701,46.20-216.509,109.753c-9.042-15.514-14.223-33.558-14.223-52.809
	c0.00-36.444, 18.544-68.596, 46.73-87.433c-17.219,0.546-33.416,5.271-47.577,13.139c-0.01-0.438-0.01-0.878-0.01-1.321
	c0.00-50.894, 36.209-93.348, 84.261-103.00c-8.813-2.40-18.094-3.686-27.674-3.686c-6.769,0.00-13.349,0.66-19.764,1.886
	c 13.368-41.73, 52.16-72.103, 98.126-72.948c-35.95-28.175-81.243-44.967-130.458-44.967c-8.479,0.00-16.84,0.497-25.058,1.47
	c 46.486-29.805, 101.701-47.197, 161.021-47.197c 193.211,0.00, 298.868,160.062, 298.868,298.872c0.00,4.554-0.103,9.084-0.305,13.59
	C 480.11,343.227, 497.918,361.727, 512.00,382.791z"  />
<glyph unicode="&#xe011;" d="M 302.104,397.455c-13.309,3.217-8.972-0.782-10.257,3.862c-2.645,9.399-6.477,26.411-11.824,36.593c0.00,0.00-132.244,18.715-164.753,14.746
	c-1.232-0.14-9.05,0.642-15.515,0.642c-7.342,0.00-43.74-5.958-43.74-13.317l-0.251-416.626l 31.619-28.653L 113.493,23.354l0.00,146.147 
	c0.00,0.00, 1.952,2.999, 5.77,5.009c 20.185,10.607, 131.748,54.332, 167.892,49.324l 0.085-26.016c 24.677-31.814, 168.255,1.90, 168.255,1.90
	l 0.758,212.987C 413.727,398.826, 337.543,388.838, 302.104,397.455z M 117.724,194.57c-1.37-3.273-4.231-1.794-4.231-1.794L 113.493,420.593 
	c0.00,0.898, 1.15,7.023, 4.354-1.929C 156.582,386.91, 145.422,261.041, 117.724,194.57z"  />
<glyph unicode="&#xe012;" d="M 27.307,223.45C 27.307,349.537, 126.787,453.243, 253.225,453.243C 379.662,453.243, 484.693,349.537, 484.693,223.45c0.00-126.437-102.287-228.693-228.693-228.693
	C 129.562-5.243, 27.307,97.014, 27.307,223.45z M 157.99,288.00L 256.00,124.648l 98.014,163.352L 157.99,288.00 L 157.99,288.00z"  />
<glyph unicode="&#xe013;" d="M 256.00,453.583c-126.787,0.00-229.583-102.798-229.583-229.584c0.00-126.785, 102.796-229.583, 229.583-229.583
	c 126.788,0.00, 229.583,102.794, 229.583,229.583S 382.787,453.583, 256.00,453.583z M 256.00,80.512c-15.845,0.00-28.694,12.836-28.694,28.696
	c0.00,15.865, 12.851,28.694, 28.694,28.694c 15.863,0.00, 28.699-12.832, 28.699-28.694C 284.699,93.346, 271.863,80.512, 256.00,80.512z
	 M 331.194,240.509c-4.316-6.234-12.617-14.184-24.858-23.878l-12.112-9.499c-6.577-5.21-7.364-6.501-9.523-13.423
	c-1.343-4.371, 0.109-20.053,0.00-30.293l-57.393,0.00 c 0.686,20.48, 4.217,36.487, 7.159,43.913c 2.956,7.453, 14.15,16.817, 26.412,26.498l 12.443,10.264
	c 4.089,3.111, 7.369,6.70, 9.863,10.40c 4.54,6.333, 6.813,13.413, 6.813,21.036c0.00,8.757-2.524,16.794-7.596,23.996
	c-5.043,7.206-14.293,10.844-27.675,10.844c-13.169,0.00-22.516-4.512-28.037-13.396c-5.507-8.883-6.461-20.915-6.461-27.742L 169.066,269.228 
	c 1.374,30.72, 12.696,56.241, 33.993,69.96c 13.44,8.759, 29.947,13.186, 49.536,13.186c 25.714,0.00, 47.128-6.20, 64.135-18.659
	c 17.014-12.457, 25.533-30.887, 25.533-55.34C 342.263,263.378, 338.563,250.764, 331.194,240.509z"  />
<glyph unicode="&#xe014;" d="M 369.509,221.44L 482.133,344.525l0.00-89.914 L 369.509,136.107L 26.453,136.107 l0.00,85.333 L 369.509,221.44 z M 26.453,86.613l0.00-92.16 l 343.055,0.00 l 112.625,122.754l0.00,89.917 
	L 369.509,86.613L 26.453,86.613 z M 141.373,451.84L 26.453,332.071L 26.453,270.933 l 343.055,0.00 L 482.133,392.016L 482.133,451.84 L 141.373,451.84 z"  />
<glyph unicode="&#xe015;" d="M 161.64,255.727l 66.956-129.708c0.00,0.00, 53.185,237.821, 224.732,325.671c0.00-60.72, 1.06-84.844, 30.36-151.782
	C 408.359,283.163, 291.021,88.363, 240.811-3.69c-71.124,87.883-153.917,161.213-212.50,182.159L 161.64,255.727z"  />
<glyph unicode="&#xe016;" d="M 114.668,280.533l 84.801-113.067c0.00,0.00, 113.707,226.133, 282.667,282.667c0.00-51.012,0.00-113.398,0.00-197.868
	c-85.333,0.00-239.546-151.299-282.667-226.133c-61.088,71.438-119.291,96.06-169.60,113.067L 114.668,280.533z M 482.133,110.507l-56.32,0.00 l0.00,58.027 l-56.32,0.00 l0.00-58.027 l-58.027,0.00 
	l0.00-56.32 l 58.027,0.00 l0.00-56.32 l 56.32,0.00 l0.00,56.32 l 56.32,0.00 L 482.133,110.507 z"  />
<glyph unicode="&#xe017;" d="M 426.672,480.00L 85.342,480.00 C 38.406,480.00,0.00,441.593,0.00,394.656l0.00-341.313 C0.00,6.374, 38.406-32.00, 85.342-32.00l 341.33,0.001
	c 46.938,0.00, 85.328,38.373, 85.328,85.344L 512.00,394.656 C 512.00,441.593, 473.609,480.00, 426.672,480.00z M 435.296,224.00L 352.00,224.00 l0.00-224.00 l-96.00,0.00 L 256.00,224.00 l-46.263,0.00 l0.00,73.282 L 256.00,297.282 
	l0.00,47.593 C 256.00,409.546, 283.896,448.00, 359.935,448.00l 87.622,0.00 l0.00-79.285 l-71.565,0.00 c-21.241,0.035-23.876-11.076-23.876-31.756L 352.00,297.282l 96.00,0.00 
	L 435.296,224.00z"  />
<glyph unicode="&#xe018;" d="M 75.878,224.558c0.00-37.461-28.095-68.318-64.377-72.762c-6.018,23.243-9.216,47.645-9.216,72.762c0.00,25.129, 3.198,49.509, 9.216,72.765
	C 47.766,292.866, 75.878,262.023, 75.878,224.558 M 118.526,247.564c-12.699,0.00-22.997-10.307-22.997-23.006
	c0.00-12.703, 10.298-23.004, 22.997-23.004c 12.711,0.00, 23.009,10.30, 23.009,23.004C 141.536,237.257, 131.238,247.564, 118.526,247.564
	 M 436.111,224.558c0.00-37.461, 28.104-68.318, 64.374-72.762c 6.013,23.243, 9.228,47.645, 9.228,72.762c0.00,25.129-3.215,49.509-9.228,72.765
	C 464.215,292.866, 436.111,262.023, 436.111,224.558 M 393.46,247.564c-12.71,0.00-23.006-10.307-23.006-23.006
	c0.00-12.703, 10.296-23.004, 23.006-23.004c 12.704,0.00, 23.009,10.30, 23.009,23.004C 416.469,237.257, 406.164,247.564, 393.46,247.564
	 M 255.519,43.791c-37.46,0.00-68.297-28.119-72.76-64.369c 23.262-6.019, 47.636-9.228, 72.771-9.228c 25.141,0.00, 49.50,3.209, 72.769,9.228
	C 323.833,15.674, 292.992,43.791, 255.519,43.791 M 255.532,109.467c-12.711,0.00-23.008-10.32-23.008-23.026
	c0.00-12.71, 10.298-23.004, 23.008-23.004c 12.694,0.00, 23.001,10.293, 23.001,23.004C 278.531,99.147, 268.227,109.467, 255.532,109.467
	 M 255.532,404.21c 37.46,0.00, 68.309,28.107, 72.76,64.382c-23.262,6.002-47.613,9.211-72.76,9.211c-25.143,0.00-49.509-3.209-72.777-9.211
	C 187.22,432.319, 218.063,404.21, 255.532,404.21 M 255.532,384.565c-12.711,0.00-23.008-10.307-23.008-23.014
	c0.00-12.689, 10.298-22.989, 23.008-22.989c 12.694,0.00, 23.001,10.301, 23.001,22.989C 278.531,374.258, 268.227,384.565, 255.532,384.565
	 M 383.113,96.986c-26.464-26.481-28.421-68.123-5.978-96.911c 42.40,24.996, 77.882,60.489, 102.871,102.902
	C 451.224,125.404, 409.573,123.441, 383.113,96.986 M 336.676,143.404c-8.972-8.98-8.972-23.55,0.00-32.534
	c 8.992-8.986, 23.557-8.986, 32.548,0.00c 8.969,8.986, 8.969,23.555,0.00,32.534C 360.233,152.388, 345.668,152.388, 336.676,143.404 M 128.352,351.744
	c 26.465,26.465, 28.421,68.118, 5.978,96.896C 91.914,423.644, 56.441,388.176, 31.444,345.76C 60.228,323.313, 101.886,325.274, 128.352,351.744
	 M 142.237,337.848c-8.965-8.986-8.965-23.555,0.00-32.541c 8.984-8.975, 23.561-8.975, 32.532,0.00c 8.982,8.986, 8.982,23.555,0.00,32.541
	C 165.798,346.825, 151.221,346.825, 142.237,337.848 M 382.956,351.98c 26.469-26.465, 68.11-28.426, 96.889-5.978
	c-24.979,42.416-60.465,77.884-102.868,102.88C 354.536,420.11, 356.497,378.455, 382.956,351.98 M 369.067,305.553
	c 8.969,8.986, 8.969,23.555,0.00,32.541c-8.992,8.97-23.569,8.97-32.548,0.00c-8.972-8.986-8.972-23.555,0.00-32.541
	C 345.498,296.574, 360.074,296.574, 369.067,305.553 M 128.215,97.268c-26.458,26.455-68.105,28.416-96.889,5.99
	c 24.991-42.414, 60.471-77.906, 102.886-102.902C 156.655,29.146, 154.699,70.789, 128.215,97.268 M 142.111,143.684
	c-8.958-8.979-8.958-23.549,0.00-32.532c 8.998-8.987, 23.567-8.987, 32.546,0.00c 8.984,8.986, 8.984,23.555,0.00,32.532
	C 165.678,152.672, 151.108,152.672, 142.111,143.684"  />
<glyph unicode="&#xe019;" d="M 479.107,318.817l-128.29,128.29c-6.263,6.263-32.073,0.00-32.073,0.00s-6.265-25.808,0.00-32.073l 18.026-18.029
	c-0.62-0.626-1.251-1.26-1.913-1.92l-110.329-110.341l-2.002,2.00c-54.059,47.046-128.292,0.00-128.292,0.00l 96.106-96.218L 29.867,30.162
	L 29.867-2.133 l 32.297,0.00 l 160.364,160.476l 96.215-96.164c0.00,0.00, 53.06,73.255,0.00,128.317l-3.507,3.519l 110.327,110.324
	c 0.669,0.669, 1.309,1.307, 1.937,1.934l 19.536-19.529c 10.114-6.263, 32.07,0.002, 32.07,0.002S 485.369,312.552, 479.107,318.817z"  />
<glyph unicode="&#xe01a;" d="M 426.671,480.00L 85.343,480.00 C 38.406,480.00,0.00,441.595,0.00,394.655l0.00-341.311 C0.00,6.375, 38.406-32.00, 85.343-32.00l 341.328,0.00 
	C 473.609-32.00, 512.00,6.375, 512.00,53.345L 512.00,394.655 C 512.00,441.595, 473.609,480.00, 426.671,480.00z M 419.026,309.083
	c 0.164-3.671, 0.245-7.364, 0.245-11.074c0.00-113.107-84.608-243.534-239.329-243.534c-47.502,0.00-91.717,14.174-128.943,38.459
	c 6.58-0.794, 13.276-1.197, 20.065-1.197c 39.411,0.00, 75.679,13.685, 104.467,36.641c-36.808,0.69-67.872,25.438-78.577,59.441
	c 5.137-1.00, 10.406-1.537, 15.826-1.537c 7.672,0.00, 15.103,1.048, 22.16,3.004c-38.48,7.866-67.475,42.458-67.475,83.928
	c0.00,0.361,0.00,0.719, 0.008,1.076c 11.34-6.41, 24.312-10.26, 38.10-10.705c-22.571,15.349-37.421,41.546-37.421,71.244
	c0.00,15.685, 4.147,30.389, 11.389,43.029c 41.487-51.785, 103.468-85.86, 173.377-89.431c-1.435,6.266-2.179,12.798-2.179,19.507
	c0.00,47.269, 37.663,85.59, 84.115,85.59c 24.195,0.00, 46.059-10.393, 61.401-27.029c 19.16,3.838, 37.162,10.96, 53.416,20.771
	c-6.281-19.988-19.617-36.761-36.983-47.355c 17.013,2.069, 33.226,6.67, 48.31,13.477C 449.725,336.226, 435.463,321.15, 419.026,309.083
	z"  />
<glyph unicode="&#xe01b;" d="M0.00,201.795c0.00,41.395, 13.854,77.197, 41.561,107.408c-1.502,4.006-2.879,8.554-4.131,13.645
	c-1.251,5.091-2.42,12.352-3.505,21.782s-0.667,20.321, 1.252,32.673s 5.466,24.953, 10.64,37.806c 1.001,0.333, 2.379,0.626, 4.131,0.876
	s 5.967,0.042, 12.644-0.626c 6.676-0.668, 13.854-2.128, 21.531-4.382c 7.678-2.253, 17.985-6.593, 30.92-13.019
	s 26.497-14.479, 40.685-24.16c 24.369,6.676, 57.751,10.015, 100.147,10.015c 42.562,0.00, 76.028-3.339, 100.396-10.015
	c 14.188,9.681, 27.666,17.734, 40.435,24.16s 23.201,10.766, 31.296,13.019c 8.095,2.254, 15.189,3.756, 21.281,4.507
	s 10.474,0.876, 13.145,0.376l 3.755-0.751c 5.175-12.853, 8.722-25.454, 10.641-37.806c 1.92-12.352, 2.337-23.242, 1.252-32.673
	s-2.253-16.691-3.505-21.782s-2.629-9.639-4.131-13.645C 498.146,278.992, 512.00,243.189, 512.00,201.795c0.00-23.20-2.17-44.189-6.51-62.967
	s-10.39-35.093-18.151-48.946s-17.609-26.039-29.543-36.554c-11.935-10.516-24.87-19.111-38.808-25.788
	c-13.937-6.677-29.835-12.101-47.694-16.273s-36.053-7.094-54.58-8.764c-18.527-1.669-38.974-2.503-61.34-2.503
	c-22.199,0.00-42.562,0.834-61.089,2.503c-18.527,1.67-36.679,4.591-54.455,8.764c-17.776,4.173-33.591,9.597-47.444,16.273
	s-26.706,15.272-38.556,25.788c-11.851,10.515-21.615,22.70-29.293,36.554c-7.678,13.854-13.687,30.169-18.026,48.946
	C 2.17,157.605,0.00,178.595,0.00,201.795z M 62.842,138.953c0.00-14.354, 1.794-27.081, 5.383-38.181c 3.588-11.10, 8.179-20.405, 13.77-27.916
	s 13.353-13.896, 23.284-19.153s 19.612-9.305, 29.042-12.143c 9.431-2.837, 21.532-5.049, 36.303-6.635s 27.958-2.546, 39.558-2.879
	c 11.60-0.334, 26.33-0.501, 44.189-0.501c 17.86,0.00, 32.589,0.167, 44.19,0.501c 11.60,0.333, 24.786,1.293, 39.558,2.879
	s 26.873,3.798, 36.304,6.635c 9.431,2.838, 19.111,6.885, 29.042,12.143c 9.932,5.258, 17.692,11.643, 23.284,19.153
	s 10.182,16.816, 13.771,27.916c 3.588,11.10, 5.383,23.826, 5.383,38.181c0.00,24.369-10.933,46.401-32.798,66.097
	c-6.51,6.01-14.104,10.558-22.783,13.646c-8.68,3.088-18.486,4.84-29.419,5.258c-10.933,0.417-21.406,0.334-31.421-0.251
	c-10.015-0.584-22.366-1.377-37.054-2.378c-14.688-1.002-27.374-1.502-38.056-1.502s-23.368,0.50-38.056,1.502
	c-14.688,1.001-27.04,1.794-37.054,2.378c-10.015,0.585-20.488,0.668-31.421,0.251c-10.933-0.418-20.739-2.17-29.418-5.258
	c-8.679-3.088-16.274-7.636-22.783-13.646C 73.775,185.021, 62.842,162.988, 62.842,138.953z M 135.699,134.697
	c0.00,15.689, 3.755,29.126, 11.267,40.309c 7.511,11.184, 16.607,16.774, 27.29,16.774c 10.682,0.00, 19.737-5.55, 27.165-16.649
	c 7.428-11.099, 11.142-24.577, 11.142-40.434s-3.714-29.335-11.142-40.435s-16.482-16.649-27.165-16.649
	c-10.683,0.00-19.779,5.592-27.29,16.774C 139.454,105.571, 135.699,119.007, 135.699,134.697z M 296.685,134.697
	c0.00,15.689, 3.756,29.126, 11.267,40.309c 7.511,11.184, 16.524,16.774, 27.039,16.774c 10.683,0.00, 19.779-5.591, 27.29-16.774
	c 7.512-11.183, 11.267-24.619, 11.267-40.309c0.00-15.69-3.755-29.126-11.267-40.31c-7.511-11.183-16.607-16.774-27.29-16.774
	c-10.515,0.00-19.528,5.592-27.039,16.774C 300.44,105.571, 296.685,119.007, 296.685,134.697z"  />
<glyph unicode="&#xe01c;" d="M 487.655,191.031c 1.406,10.40, 2.215,20.973, 2.215,31.736c0.00,129.155-105.271,233.872-235.103,233.872
	c-12.904,0.00-25.555-1.06-37.866-3.08c-22.072,14.384-48.342,22.767-76.612,22.767C 62.766,476.326,0.00,413.518,0.00,336.02
	c0.00-28.198, 8.299-54.394, 22.59-76.389c-1.925-12.017-2.909-24.323-2.909-36.859c0.00-129.176, 105.217-233.882, 235.085-233.882
	c 14.657,0.00, 28.927,1.427, 42.796,3.933c 21.55-13.369, 46.934-21.148, 74.146-21.148C 449.21-28.326, 512.00,34.498, 512.00,111.988
	C 511.997,141.281, 503.04,168.516, 487.655,191.031z M 276.74,50.404c-74.705-3.892-109.664,12.637-141.689,42.691
	c-35.765,33.567-21.398,71.854, 7.74,73.801c 29.122,1.944, 46.607-33.013, 62.15-42.736c 15.524-9.688, 74.594-31.76, 105.794,3.908
	c 33.976,38.828-22.594,58.92-64.059,65.002c-59.203,8.766-133.95,40.792-128.135,103.907c 5.816,63.074, 53.582,95.414, 103.85,99.976
	c 64.077,5.817, 105.791-9.707, 138.785-37.86c 38.15-32.529, 17.508-68.894-6.799-71.82c-24.212-2.909-51.404,53.504-104.791,54.352
	c-55.027,0.864-92.217-57.261-24.286-73.784c 67.966-16.505, 140.75-23.286, 166.961-85.417
	C 418.49,120.287, 351.507,54.299, 276.74,50.404z"  />
<glyph unicode="&#xe01d;" d="M 64.00,224.004c0.00-74.013, 44.161-137.984, 108.215-168.289L 80.626,300.107C 69.972,276.853, 64.00,251.116, 64.00,224.004zM 385.614,233.436c0.00,23.117-8.527,39.118-15.827,51.571c-9.729,15.41-18.86,28.447-18.86,43.858
			c0.00,17.187, 13.383,33.188, 32.243,33.188c 0.852,0.00, 1.66-0.102, 2.488-0.151C 351.50,392.387, 305.988,411.00, 256.004,411.00
			c-67.08,0.00-126.093-33.523-160.422-84.284c 4.505-0.141, 8.753-0.227, 12.356-0.227c 20.077,0.00, 51.17,2.376, 51.17,2.376
			c 10.345,0.591, 11.566-14.217, 1.229-15.411c0.00,0.00-10.405-1.184-21.976-1.775l 69.917-202.553l 42.022,122.728l-29.911,79.825
			c-10.344,0.592-20.139,1.775-20.139,1.775c-10.351,0.596-9.136,16.001, 1.219,15.411c0.00,0.00, 31.70-2.376, 50.567-2.376
			c 20.073,0.00, 51.175,2.376, 51.175,2.376c 10.351,0.591, 11.57-14.217, 1.223-15.411c0.00,0.00-10.417-1.186-21.974-1.775L 351.85,110.67
			l 19.156,62.316C 379.296,198.861, 385.614,217.436, 385.614,233.436zM 259.371,207.648l-57.613-163.029c 17.208-4.929, 35.397-7.619, 54.244-7.619c 22.358,0.00, 43.802,3.759, 63.759,10.60
			c-0.509,0.801-0.987,1.652-1.375,2.577L 259.371,207.648zM 424.481,313.714c 0.826-5.955, 1.294-12.343, 1.294-19.229c0.00-18.965-3.646-40.298-14.601-66.975l-58.643-165.136
			C 409.612,94.788, 448.00,155.018, 448.00,224.003C 448.00,256.518, 439.47,287.083, 424.481,313.714zM 256.00,480.00C 114.615,480.00,0.00,365.385,0.00,224.00s 114.615-256.00, 256.00-256.00s 256.00,114.615, 256.00,256.00S 397.385,480.00, 256.00,480.00z M 256.00,0.00
		C 132.288,0.00, 32.00,100.288, 32.00,224.00S 132.288,448.00, 256.00,448.00s 224.00-100.288, 224.00-224.00S 379.712,0.00, 256.00,0.00z"  />
<glyph unicode="&#xe01e;" d="M 319.889,242.054L 341.995,242.054L 316.489,128.965L 283.326,287.97L 230.051,287.97L 191.494,128.965L 162.586,287.97L 106.889,287.97L 163.435,32.029L 217.854,32.029L 256.001,183.383L 290.129,32.029L 340.297,32.029L 405.112,287.97L 319.889,287.97 	
		zM 451.716,380.285l-71.432,71.431C 364.728,467.272, 334.00,480.00, 312.00,480.00L 72.00,480.00 C 50.00,480.00, 32.00,462.00, 32.00,440.00l0.00-432.00 c0.00-22.00, 18.00-40.00, 40.00-40.00l 368.00,0.00 
		c 22.00,0.00, 40.00,18.00, 40.00,40.00L 480.00,312.00 C 480.00,334.00, 467.272,364.729, 451.716,380.285z M 429.089,357.657c 1.565-1.565, 3.125-3.487, 4.64-5.657L 352.00,352.00 L 352.00,433.728 
		c 2.17-1.515, 4.092-3.075, 5.657-4.64L 429.089,357.657z M 448.00,8.00c0.00-4.336-3.664-8.00-8.00-8.00L 72.00,0.00 c-4.336,0.00-8.00,3.664-8.00,8.00L 64.00,440.00 
		c0.00,4.336, 3.664,8.00, 8.00,8.00l 240.00,0.00 c 2.416,0.00, 5.127-0.305, 8.00-0.852L 320.00,320.00 l 127.148,0.00 c 0.547-2.873, 0.852-5.583, 0.852-8.00L 448.00,8.00 z"  />
<glyph unicode="&#xe01f;" d="M 371.514,288.00L 303.867,288.00L 256.001,217.484L 208.131,288.00L 140.487,288.00L 221.568,166.768L 130.081,32.00L 261.201,32.00L 261.201,77.788L 230.923,77.788L 256.001,115.285L 311.699,32.00L 381.92,32.00L 290.432,166.768 	zM 451.716,380.285l-71.432,71.431C 364.728,467.272, 334.00,480.00, 312.00,480.00L 72.00,480.00 C 50.00,480.00, 32.00,462.00, 32.00,440.00l0.00-432.00 c0.00-22.00, 18.00-40.00, 40.00-40.00l 368.00,0.00 
		c 22.00,0.00, 40.00,18.00, 40.00,40.00L 480.00,312.00 C 480.00,334.00, 467.272,364.729, 451.716,380.285z M 429.089,357.657c 1.565-1.565, 3.125-3.487, 4.64-5.657L 352.00,352.00 L 352.00,433.728 
		c 2.17-1.515, 4.092-3.075, 5.657-4.64L 429.089,357.657z M 448.00,8.00c0.00-4.336-3.664-8.00-8.00-8.00L 72.00,0.00 c-4.336,0.00-8.00,3.664-8.00,8.00L 64.00,440.00 
		c0.00,4.336, 3.664,8.00, 8.00,8.00l 240.00,0.00 c 2.416,0.00, 5.127-0.305, 8.00-0.852L 320.00,320.00 l 127.148,0.00 c 0.547-2.873, 0.852-5.583, 0.852-8.00L 448.00,8.00 z"  />
<glyph unicode="&#xe020;" d="M 303.999,224.00c-44.187,0.00-80.00-35.816-80.00-80.00s 35.815-80.00, 80.00-80.00c 44.184,0.00, 80.00,35.816, 80.00,80.00S 348.183,224.00, 303.999,224.00z M 303.999,144.00
		l0.00,64.00 c 35.287,0.00, 64.00-28.71, 64.00-64.00L 303.999,144.00 zM 96.00,224.00L 192.00,224.00L 192.00,192.00L 96.00,192.00zM 96.00,160.00L 192.00,160.00L 192.00,128.00L 96.00,128.00zM 96.00,96.00L 192.00,96.00L 192.00,64.00L 96.00,64.00zM 451.716,380.285l-71.432,71.431C 364.728,467.272, 334.00,480.00, 312.00,480.00L 72.00,480.00 C 50.00,480.00, 32.00,462.00, 32.00,440.00l0.00-432.00 c0.00-22.00, 18.00-40.00, 40.00-40.00l 368.00,0.00 
		c 22.00,0.00, 40.00,18.00, 40.00,40.00L 480.00,312.00 C 480.00,334.00, 467.272,364.729, 451.716,380.285z M 429.089,357.657c 1.565-1.565, 3.125-3.487, 4.64-5.657L 352.00,352.00 L 352.00,433.728 
		c 2.17-1.515, 4.092-3.075, 5.657-4.64L 429.089,357.657z M 448.00,8.00c0.00-4.336-3.664-8.00-8.00-8.00L 72.00,0.00 c-4.336,0.00-8.00,3.664-8.00,8.00L 64.00,440.00 
		c0.00,4.336, 3.664,8.00, 8.00,8.00l 240.00,0.00 c 2.416,0.00, 5.127-0.305, 8.00-0.852L 320.00,320.00 l 127.148,0.00 c 0.547-2.873, 0.852-5.583, 0.852-8.00L 448.00,8.00 z"  />
<glyph unicode="&#xe021;" d="M 421.006,185.26c-6.824,6.723-21.957,10.283-44.986,10.586c-15.589,0.172-34.351-1.201-54.085-3.964
		c-8.837,5.099-17.946,10.647-25.094,17.329c-19.231,17.958-35.284,42.886-45.288,70.297c 0.652,2.56, 1.207,4.81, 1.724,7.106
		c0.00,0.00, 10.833,61.53, 7.965,82.333c-0.395,2.853-0.637,3.681-1.404,5.898l-0.941,2.417c-2.948,6.796-8.724,13.997-17.783,13.604
		l-5.312,0.169l-0.146,0.003c-10.10,0.00-18.332-5.166-20.493-12.887c-6.569-24.217, 0.209-60.446, 12.491-107.369l-3.144-7.643
		c-8.794-21.438-19.815-43.03-29.539-62.079l-1.264-2.476c-10.23-20.019-19.512-37.013-27.927-51.411l-8.688-4.594
		c-0.632-0.334-15.522-8.209-19.014-10.322c-29.628-17.691-49.261-37.77-52.518-53.708c-1.036-5.085-0.265-11.593, 5.007-14.607
		l 8.403-4.229c 3.645-1.826, 7.489-2.751, 11.427-2.751c 21.102,0.00, 45.60,26.286, 79.348,85.183
		c 38.965,12.684, 83.327,23.228, 122.207,29.045c 29.629-16.684, 66.071-28.273, 89.071-28.273c 4.084,0.00, 7.606,0.389, 10.466,1.148
		c 4.411,1.168, 8.129,3.683, 10.396,7.096c 4.463,6.716, 5.367,15.966, 4.156,25.438C 425.68,179.411, 423.435,182.887, 421.006,185.26z
		 M 105.823,72.976c 3.848,10.521, 19.08,31.322, 41.602,49.778c 1.416,1.148, 4.904,4.416, 8.097,7.451
		C 131.971,92.643, 116.199,77.672, 105.823,72.976z M 239.217,380.157c 6.783,0.00, 10.642-17.097, 10.962-33.127
		c 0.32-16.03-3.429-27.28-8.079-35.604c-3.851,12.324-5.713,31.75-5.713,44.452C 236.387,355.878, 236.104,380.157, 239.217,380.157z
		 M 199.426,161.253c 4.725,8.458, 9.641,17.378, 14.665,26.839c 12.246,23.158, 19.979,41.278, 25.739,56.173
		c 11.455-20.842, 25.722-38.56, 42.493-52.756c 2.092-1.771, 4.309-3.551, 6.637-5.325C 254.855,179.436, 225.378,171.229, 199.426,161.253z
		 M 414.452,163.174c-2.077-1.299-8.027-2.05-11.854-2.05c-12.353,0.00-27.636,5.647-49.063,14.833
		c 8.234,0.609, 15.781,0.919, 22.55,0.919c 12.391,0.00, 16.06,0.054, 28.175-3.036S 416.529,164.473, 414.452,163.174zM 451.716,380.285l-71.432,71.431C 364.728,467.272, 334.00,480.00, 312.00,480.00L 72.00,480.00 C 50.00,480.00, 32.00,462.00, 32.00,440.00l0.00-432.00 c0.00-22.00, 18.00-40.00, 40.00-40.00l 368.00,0.00 
		c 22.00,0.00, 40.00,18.00, 40.00,40.00L 480.00,312.00 C 480.00,334.00, 467.272,364.729, 451.716,380.285z M 429.089,357.657c 1.565-1.565, 3.125-3.487, 4.64-5.657L 352.00,352.00 L 352.00,433.728 
		c 2.17-1.515, 4.092-3.075, 5.657-4.64L 429.089,357.657z M 448.00,8.00c0.00-4.336-3.664-8.00-8.00-8.00L 72.00,0.00 c-4.336,0.00-8.00,3.664-8.00,8.00L 64.00,440.00 
		c0.00,4.336, 3.664,8.00, 8.00,8.00l 240.00,0.00 c 2.416,0.00, 5.127-0.305, 8.00-0.852L 320.00,320.00 l 127.148,0.00 c 0.547-2.873, 0.852-5.583, 0.852-8.00L 448.00,8.00 z"  />
<glyph unicode="&#xe022;" d="M 426.675,480.00L 85.324,480.00 C 38.199,480.00,0.00,441.79,0.00,394.657l0.00-341.315 C0.00,6.209, 38.199-32.00, 85.324-32.00l 341.351,0.00 
	C 473.80-32.00, 512.00,6.209, 512.00,53.342L 512.00,394.657 C 512.00,441.79, 473.80,480.00, 426.675,480.00z M 280.822,137.941
	c-23.26,1.807-33.021,13.328-51.252,24.404c-10.03-52.589-22.281-103.009-58.569-129.344
	c-11.202,79.484, 16.447,139.182, 29.285,202.557c-21.893,36.853, 2.635,111.017, 48.81,92.737
	c 56.813-22.474-49.20-137.004, 21.966-151.308c 74.31-14.934, 104.644,128.929, 58.571,175.712
	c-66.579,67.553-193.799,1.54-178.155-95.178c 3.807-23.646, 28.236-30.819, 9.762-63.451c-42.61,9.446-55.325,43.051-53.688,87.856
	c 2.634,73.337, 65.892,124.682, 129.343,131.783c 80.242,8.982, 155.553-29.454, 165.953-104.938
	C 414.553,223.577, 366.623,131.307, 280.822,137.941z"  />
<glyph unicode="&#xe023;" d="M 377.594,448.00c-53.815,0.00-100.129-43.777-121.582-89.50C 234.543,404.222, 188.223,448.00, 134.404,448.00C 60.213,448.00,0.00,387.78,0.00,313.584
	c0.00-150.923, 152.25-190.497, 256.011-339.709C 354.088,122.163, 512.00,167.478, 512.00,313.584C 512.00,387.78, 451.785,448.00, 377.594,448.00z"  />
<glyph unicode="&#xe024;" d="M 445.502,299.97C 443.881,364.319, 391.273,416.00, 326.571,416.00c-37.896,0.00-71.633-17.747-93.427-45.366
	c-12.221,15.799-31.345,25.98-52.854,25.98c-36.905,0.00-66.821-29.937-66.821-66.861c0.00-3.218, 0.24-6.38, 0.682-9.477
	c-5.611,1.012-11.383,1.569-17.285,1.569C 43.367,321.846,0.00,278.452,0.00,224.924C0.00,171.393, 43.367,128.00, 96.865,128.00L 192.00,128.00 l0.00-96.00 l 128.00,0.00 l0.00,96.00 
	l 104.996,0.00 l0.00,0.006 C 473.065,128.098, 512.00,167.112, 512.00,215.229C 512.00,256.274, 483.661,290.679, 445.502,299.97z M 288.00,160.00l0.00-96.00 l-64.00,0.00 l0.00,96.00 l-64.00,0.00 
	l 96.00,96.00l 96.00-96.00L 288.00,160.00 z"  />
<glyph unicode="&#xe025;" d="M 68.147,104.535c-37.598,0.00-68.146-30.667-68.146-68.038c0.00-37.577, 30.55-67.901, 68.146-67.901
		c 37.733,0.00, 68.247,30.324, 68.247,67.901C 136.393,73.868, 105.882,104.535, 68.147,104.535zM 0.078,306.035l0.00-98.129 c 63.892,0.00, 123.979-24.986, 169.229-70.256c 45.192-45.159, 70.141-105.518, 70.141-169.65l 98.561,0.00 
		C 338.008,154.41, 186.368,306.035, 0.078,306.035zM 0.194,480.00l0.00-98.178 c 227.891,0.00, 413.378-185.667, 413.378-413.822L 512.00-32.00 C 512.00,250.235, 282.373,480.00, 0.194,480.00z"  />
<glyph unicode="&#xe026;" d="M0.00,384.00L 512.00,384.00L 512.00,352.00L0.00,352.00zM0.00,320.00L 352.00,320.00L 352.00,288.00L0.00,288.00zM0.00,256.00L 512.00,256.00L 512.00,224.00L0.00,224.00zM0.00,192.00L 352.00,192.00L 352.00,160.00L0.00,160.00zM0.00,128.00L 512.00,128.00L 512.00,96.00L0.00,96.00zM0.00,64.00L 352.00,64.00L 352.00,32.00L0.00,32.00z"  />
<glyph unicode="&#xe027;" d="M0.00,384.00L 512.00,384.00L 512.00,352.00L0.00,352.00zM 96.00,320.00L 416.00,320.00L 416.00,288.00L 96.00,288.00zM 96.00,192.00L 416.00,192.00L 416.00,160.00L 96.00,160.00zM 96.00,64.00L 416.00,64.00L 416.00,32.00L 96.00,32.00zM0.00,256.00L 512.00,256.00L 512.00,224.00L0.00,224.00zM0.00,128.00L 512.00,128.00L 512.00,96.00L0.00,96.00z"  />
<glyph unicode="&#xe028;" d="M0.00,384.00L 512.00,384.00L 512.00,352.00L0.00,352.00zM 160.00,320.00L 512.00,320.00L 512.00,288.00L 160.00,288.00zM0.00,256.00L 512.00,256.00L 512.00,224.00L0.00,224.00zM 160.00,192.00L 512.00,192.00L 512.00,160.00L 160.00,160.00zM0.00,128.00L 512.00,128.00L 512.00,96.00L0.00,96.00zM 160.00,64.00L 512.00,64.00L 512.00,32.00L 160.00,32.00z"  />
<glyph unicode="&#xe029;" d="M 256.00,480.00c-70.692,0.00-128.00-57.308-128.00-128.00s 57.308-128.00, 128.00-128.00l0.00-256.00 l 64.00,0.00 L 320.00,416.00 l 64.00,0.00 l0.00-448.00 l 64.00,0.00 L 448.00,416.00 l 64.00,0.00 L 512.00,480.00 L 256.00,480.00 zM0.00,128.00L 128.00,256.00L0.00,384.00 	z"  />
<glyph unicode="&#xe02a;" d="M 128.00,480.00C 57.308,480.00,0.00,422.692,0.00,352.00s 57.308-128.00, 128.00-128.00l0.00-256.00 l 64.00,0.00 L 192.00,416.00 l 64.00,0.00 l0.00-448.00 l 64.00,0.00 L 320.00,416.00 l 64.00,0.00 L 384.00,480.00 L 128.00,480.00 zM 512.00,384.00L 384.00,256.00L 512.00,128.00 	z"  />
<glyph unicode="&#xe02b;" d="M 445.502,299.97C 443.881,364.319, 391.273,416.00, 326.571,416.00c-37.896,0.00-71.633-17.747-93.427-45.366
	c-12.221,15.799-31.345,25.98-52.854,25.98c-36.905,0.00-66.821-29.937-66.821-66.861c0.00-3.218, 0.24-6.38, 0.682-9.477
	c-5.611,1.012-11.383,1.569-17.285,1.569C 43.367,321.846,0.00,278.452,0.00,224.924C0.00,171.393, 43.367,128.00, 96.865,128.00l 49.88,0.00 L 256.00,18.745
	L 365.255,128.00l 59.741,0.00 l0.00,0.006 C 473.065,128.098, 512.00,167.112, 512.00,215.229C 512.00,256.274, 483.661,290.679, 445.502,299.97z M 256.00,64.00l-96.00,96.00
	l 64.00,0.00 l0.00,96.00 l 64.00,0.00 l0.00-96.00 l 64.00,0.00 L 256.00,64.00z"  />
<glyph unicode="&#xe02c;" d="M 288.00,352.00L 64.00,352.00 c-17.601,0.00-32.00-14.399-32.00-32.00l0.00-192.00 c0.00-17.60, 14.399-32.00, 32.00-32.00l 224.00,0.00 c 17.601,0.00, 32.00,14.40, 32.00,32.00L 320.00,320.00 
		C 320.00,337.601, 305.601,352.00, 288.00,352.00zM 352.00,242.286L 352.00,205.715L 480.00,96.00L 480.00,352.00 	z"  />
<glyph unicode="&#xe02d;" d="M 206.115,224.043c-23.854,12.259-47.043,18.479-68.94,18.479c-2.978,0.00-5.976-0.09-8.974-0.354
		c-27.94-2.312-53.461-9.684-69.875-15.414c-4.354-1.599-8.817-3.288-13.415-5.153L0.00,65.904
		c 30.851,11.416, 58.146,16.969, 83.135,16.969c 40.423,0.00, 69.764-15.104, 93.996-30.652c 11.481,38.959, 39.022,133.045, 47.241,161.162
		C 218.397,217.025, 212.334,220.668, 206.115,224.043zM 264.174,184.465l-45.223-157.074c 13.416-7.686, 58.549-32.025, 93.106-32.025c 27.896,0.00, 59.126,7.148, 95.417,21.896
		l 43.178,150.988c-29.316-9.461-57.438-14.26-83.732-14.26C 318.945,153.99, 285.363,169.539, 264.174,184.465zM 146.411,295.605c 38.559-0.399, 67.076-15.104, 90.708-30.251l 46.376,158.672c-9.773,5.598-35.403,19.547-53.929,24.30
		c-12.193,2.842-25.01,4.308-38.602,4.308c-25.898-0.488-54.194-6.973-86.444-19.90l-44.22-155.298
		c 32.404,12.218, 60.322,18.17, 86.043,18.17C 146.366,295.605, 146.411,295.605, 146.411,295.605zM 512.00,380.938c-29.407-11.416-58.104-17.233-85.514-17.233c-45.843,0.00-79.646,15.901-101.547,31.183L 278.964,235.77
		c 30.873-19.854, 64.145-29.939, 99.061-29.939c 28.474,0.00, 57.97,6.84, 87.731,20.344l-0.091,1.111l 1.867,0.443L 512.00,380.938z"  />
<glyph unicode="&#xe02e;" d="M 395.749,207.954c-0.647,64.841, 52.879,95.938, 55.271,97.483c-30.076,44.01-76.925,50.039-93.621,50.736
		c-39.871,4.037-77.798-23.474-98.033-23.474c-20.184,0.00-51.409,22.877-84.476,22.276c-43.458-0.646-83.529-25.269-105.906-64.19
		c-45.152-78.349-11.563-194.42, 32.445-257.963c 21.504-31.102, 47.146-66.038, 80.813-64.79c 32.421,1.294, 44.681,20.979, 83.878,20.979
		c 39.197,0.00, 50.214-20.979, 84.525-20.335c 34.887,0.648, 56.991,31.699, 78.346,62.898c 24.695,36.084, 34.863,71.019, 35.462,72.813
		C 463.679,104.74, 396.423,130.505, 395.749,207.954zM 331.281,398.239C 349.15,419.918, 361.211,449.995, 357.921,480.00c-25.739-1.048-56.939-17.145-75.405-38.775
		c-16.571-19.188-31.074-49.813-27.187-79.218C 284.062,359.765, 313.393,376.609, 331.281,398.239z"  />
<glyph unicode="&#xe02f;" d="M 432.00,320.00c-17.60,0.00-32.00-14.40-32.00-32.00l0.00-128.00 c0.00-17.60, 14.40-32.00, 32.00-32.00s 32.00,14.40, 32.00,32.00L 464.00,288.00 C 464.00,305.60, 449.60,320.00, 432.00,320.00zM 48.00,320.00c-17.60,0.00-32.00-14.40-32.00-32.00l0.00-128.00 c0.00-17.60, 14.40-32.00, 32.00-32.00s 32.00,14.40, 32.00,32.00L 80.00,288.00 C 80.00,305.60, 65.599,320.00, 48.00,320.00zM 96.00,112.00c0.00-26.51, 21.49-48.00, 48.00-48.00l 16.00,0.00 l0.00-64.00 c0.00-17.60, 14.40-32.00, 32.00-32.00s 32.00,14.40, 32.00,32.00l0.00,64.00 l 32.00,0.00 l0.00-64.00 c0.00-17.60, 14.401-32.00, 32.00-32.00s 32.00,14.40, 32.00,32.00
		l0.00,64.00 l 16.00,0.00 c 26.51,0.00, 48.00,21.49, 48.00,48.00L 384.00,288.00 L 96.00,288.00 L 96.00,112.00 zM 299.299,435.253l 20.252,38.903c 1.016,1.951, 0.25,4.379-1.701,5.395s-4.379,0.25-5.395-1.701l-20.559-39.493
		C 275.797,444.581, 258.299,448.00, 240.00,448.00c-18.298,0.00-35.796-3.419-51.898-9.643L 167.544,477.849c-1.016,1.951-3.443,2.717-5.395,1.701
		s-2.717-3.443-1.701-5.395l 20.25-38.904c-45.315-20.509-78.12-63.792-83.81-115.252l 286.22,0.00 
		C 377.42,371.461, 344.615,414.743, 299.299,435.253z M 176.00,344.80c-12.813,0.00-23.20,10.387-23.20,23.20c0.00,12.813, 10.387,23.20, 23.20,23.20
		s 23.20-10.387, 23.20-23.20C 199.199,355.187, 188.813,344.80, 176.00,344.80z M 304.00,344.80c-12.813,0.00-23.201,10.387-23.201,23.20
		c0.00,12.813, 10.389,23.20, 23.201,23.20s 23.199-10.387, 23.199-23.20C 327.199,355.187, 316.813,344.80, 304.00,344.80z"  />
<glyph unicode="&#xe030;" d="M 256.007,452.726C 129.695,452.726, 27.283,350.312, 27.283,224.00s 102.412-228.724, 228.726-228.724
	c 126.297,0.00, 228.709,102.412, 228.709,228.724S 382.305,452.726, 256.007,452.726z M 255.602,52.453
	c-109.867,0.00-171.544,61.679-171.544,171.547c0.00,109.867, 61.676,171.544, 171.544,171.544c 109.867,0.00, 171.54-61.677, 171.54-171.544
	C 427.143,114.132, 365.471,52.453, 255.602,52.453z M 277.813,191.13l-59.571-69.086c-8.446-8.446-24.308-6.13-35.476,5.023
	c-11.168,11.167-13.324,27.122-4.878,35.57l 48.944,57.687c-0.152,1.196-0.698,2.437-0.698,3.678L 226.133,338.362 
	c0.00,15.788, 13.225,28.59, 29.013,28.59c 15.79,0.00, 29.013-12.802, 29.013-28.59L 284.16,223.147 l 0.229,0.00 C 288.387,212.907, 284.436,197.753, 277.813,191.13z"  />
<glyph unicode="&#xe031;" d="M 254.817,265.059c-12.892,0.00-23.344-10.296-23.344-22.977
		c0.00-12.696, 10.452-22.992, 23.344-22.992s 23.342,10.296, 23.342,22.992C 278.159,254.763, 267.709,265.059, 254.817,265.059zM 161.447,265.059c-12.89,0.00-23.34-10.296-23.34-22.977
		c0.00-12.696, 10.452-22.992, 23.34-22.992c 12.894,0.00, 23.344,10.296, 23.344,22.992C 184.789,254.763, 174.339,265.059, 161.447,265.059zM 348.187,265.059c-12.894,0.00-23.344-10.296-23.344-22.977
		c0.00-12.696, 10.45-22.992, 23.344-22.992c 12.89,0.00, 23.34,10.296, 23.34,22.992C 371.526,254.763, 361.076,265.059, 348.187,265.059zM 441.554,458.667c-85.373,0.00-330.382,0.00-373.475,0.00S 24.986,415.454, 24.986,415.454
		l 2.365-382.846c0.00,0.00,0.00-43.273, 43.093-43.273s 330.38,0.00, 373.473,0.00c 43.097,0.00, 43.097,43.213, 43.097,43.213l-2.364,382.846
		C 484.651,415.394, 484.651,458.667, 441.554,458.667z M 441.173,172.926c0.00-45.957-22.96-69.246-69.647-69.246l-140.052,0.00 L 137.387,35.029l0.00,68.949 
		c-46.08,0.00-69.973,22.991-69.973,68.946l0.00,137.899 c0.00,45.969, 23.675,68.953, 70.361,68.953l 233.397-0.007c 46.686,0.00, 70.004-22.977, 70.004-68.946
		L 441.175,172.926 z"  />
<glyph unicode="&#xe032;" d="M 443.327,458.667L 68.675,458.667 C 44.80,458.667, 24.747,439.984, 24.747,416.109l0.00-288.193 
	c0.00-23.866, 20.053-43.01, 43.928-43.01L 198.827,84.907 l0.00-67.736 l-27.849-13.763c0.00,0.00-6.241-14.073, 9.371-14.073l 147.70,0.00 c0.00,0.00, 18.988,5.659, 12.969,11.653
	c-5.997,6.023-27.843,16.183-27.843,16.183L 313.175,84.907 l 130.154,0.00 c 23.864,0.00, 43.926,19.144, 43.926,43.01L 487.255,416.109 
	C 487.253,439.984, 467.191,458.667, 443.327,458.667z M 458.24,171.597c0.00-15.916-13.406-28.663-29.324-28.663L 83.084,142.933 
	c-15.915,0.00-29.324,12.747-29.324,28.663L 53.76,401.702 c0.00,15.915, 13.409,29.658, 29.324,29.658l 345.834,0.00 c 15.916,0.00, 29.324-13.744, 29.324-29.658
	L 458.242,171.597 z M 112.493,156.587c 1.051,8.533, 3.697,18.038, 10.063,25.798c 7.424,6.697, 40.013,29.658, 79.38,35.135
	c 39.366,5.487, 27.44,46.63, 28.735,46.025c 1.287-0.613-0.323,8.832-0.323,8.832s-28.496,25.967-28.18,49.398
	c 0.324,23.436,0.00,38.799,0.00,38.799s 4.615,55.584, 44.868,55.584l 31.491-10.266c 36.164,0.00, 44.887-45.317, 44.887-45.317l0.00-42.216 
	c0.00,0.00-7.328-33.266-30.012-45.235c0.00,0.00-1.772-9.434-0.478-8.829c 1.28,0.611-5.291-41.252, 34.082-46.739
	c 39.361-5.477, 68.518-28.476, 75.933-35.171c 4.134-3.734, 7.223-15.558, 9.187-25.798L 112.493,156.588 z M 414.50,142.933
	c 0.002,0.00, 0.007-0.346, 0.007-0.346L 112.009,142.725c0.00,0.00-0.003,0.208-0.003,0.208L 414.50,142.933 z"  />
<glyph unicode="&#xe033;" d="M 443.767,455.253c-85.844,0.00-332.203,0.00-375.535,0.00S 24.747,411.767, 24.747,411.767l0.00-375.535 
	c0.00,0.00, 0.155-43.486, 43.486-43.486s 332.204,0.00, 375.535,0.00c 43.332,0.00, 43.486,43.486, 43.486,43.486L 487.253,411.767 C 487.253,411.767, 487.098,455.253, 443.767,455.253z
	 M 53.76,180.48c0.00,0.00,0.00,30.657,0.00,43.52c0.00,31.78, 26.742,56.054, 74.298,62.189c-14.239,13.414-23.724,37.111-23.724,64.193
	c0.00,41.878, 22.636,75.829, 50.557,75.829c 27.776,0.00, 50.307-33.601, 50.543-75.175c-30.215-22.479-50.541-64.481-50.541-112.592
	c0.00-20.71, 3.782-40.373, 10.484-57.75c-3.545-0.073-7.054-0.213-10.484-0.213C 103.453,180.48, 53.76,180.48, 53.76,180.48z M 400.328,35.635
	c0.00,0.00-76.708-0.222-144.328-0.222c-68.657,0.00-144.213,0.00-144.213,0.00s0.00,28.056,0.00,44.15c0.00,41.158, 52.487,72.276, 115.917,78.454
	c-20.552,14.599-34.84,44.148-34.84,78.621c0.00,48.86, 28.266,88.467, 63.164,88.467c 34.896,0.00, 63.177-39.608, 63.177-88.467
	c0.00-34.784-14.479-64.573-35.326-79.017c 61.216-6.968, 116.562-38.05, 116.562-78.263C 400.44,68.047, 400.328,35.635, 400.328,35.635z
	 M 458.24,180.48c0.00,0.00-50.173,0.00-101.135,0.00c-3.439,0.00-6.943,0.137-10.47,0.21c 6.70,17.377, 10.47,36.999, 10.47,57.706
	c0.00,48.111-20.326,90.136-50.54,112.616c 0.236,41.574, 22.758,75.187, 50.54,75.187c 27.928,0.00, 50.553-33.946, 50.553-75.824
	c0.00-26.883-9.351-50.452-23.415-63.921C 432.807,280.771, 458.24,256.215, 458.24,224.00C 458.24,214.944, 458.24,180.48, 458.24,180.48z"  />
<glyph unicode="&#xe034;" d="M 428.74,79.787L 227.596,79.787 L 113.493-6.211L 113.493,79.787 L 83.924,79.787 
	c-31.049,0.00-57.47,26.655-57.47,57.677L 26.453,396.078 C 26.453,427.092, 52.874,453.547, 83.924,453.547l 346.066,0.00 c 31.048,0.00, 55.557-26.455, 55.557-57.469
	l0.00-258.615 C 485.547,106.455, 459.791,79.787, 428.74,79.787z M 246.46,274.473c-11.919,4.139-22.033,5.654-33.98,6.665l0.00,14.367 
	c 22.187,10.819, 29.111,27.501, 29.111,57.47c0.00,40.023-23.791,73.702-57.184,73.702c-33.393,0.00-57.274-33.679-57.274-73.702
	c0.00-29.703, 6.842-46.498, 29.029-57.47l0.00-14.367 c-54.613-5.023-71.545-1.754-72.037-43.104c-0.162-13.413-0.101-28.776-0.101-28.776
	l 14.266-28.778l 100.572,0.00 c0.00,73.387, 61.785,59.899, 61.785,59.899C 251.641,244.391, 247.89,257.903, 246.46,274.473z M 357.547,223.669l0.00,14.367 
	c 20.48,10.819, 28.413,27.501, 28.413,57.47c0.00,40.015-24.236,71.837-57.631,71.837s-57.508-31.823-57.508-71.837
	c0.00-29.716, 8.218-46.498, 28.698-57.47l0.00-14.367 c-52.907-5.023-71.811,0.00-71.88-43.102c-0.027-17.932-0.022-14.193-0.022-14.193l 14.346-28.559
	l 172.409,0.00 l 14.688,28.559C 428.614,223.843, 388.267,220.751, 357.547,223.669z"  />
<glyph unicode="&#xe035;" d="M 440.96,455.253c-84.951,0.00-328.747,0.00-371.627,0.00S 26.453,411.947, 26.453,411.947l0.00-371.627 
	c0.00,0.00,0.00-42.453, 42.88-42.453s 328.747,0.00, 371.627,0.00s 42.88,42.453, 42.88,42.453L 483.84,411.947 C 483.84,411.947, 483.84,455.253, 440.96,455.253z
	 M 370.973,86.869l-56.199,207.254l 18.063-217.342l-71.508-18.932L 167.008,254.998l 56.195-207.252l-85.801-22.724L 54.391,331.182
	l 133.455,35.343l 74.392-172.133L 240.28,380.414l 133.455,35.342l 83.024-306.176L 370.973,86.869z"  />
<glyph unicode="&#xe036;" d="M 441.305,455.253c-85.082,0.00-329.257,0.00-372.205,0.00C 26.155,455.253, 26.453,412.607, 26.453,412.607
	l0.00-372.205 c0.00,0.00-0.299-42.535, 42.646-42.535c 42.948,0.00, 329.26,0.00, 372.205,0.00c 42.947,0.00, 42.535,42.535, 42.535,42.535L 483.84,412.607 
	C 483.84,412.607, 484.251,455.253, 441.305,455.253z M 231.912,54.719c-49.504,60.783-107.73,107.087-148.497,121.571l 96.085,57.876l 46.582-89.726
	c0.00,0.00, 70.779,193.067, 190.17,253.853c-2.908-43.409-9.646-91.779, 10.737-138.081C 374.593,248.636, 266.836,118.41, 231.912,54.719z"  />
<glyph unicode="&#xe037;" d="M 454.649,453.922L 54.82,454.071c-15.882,0.00-28.367-12.80-28.367-28.759l0.00-158.174 
	c0.00-15.959, 12.353-28.631, 28.235-28.631l 402.623,0.00 c 15.882,0.00, 28.235,12.672, 28.235,28.631l0.00,158.174 C 485.547,441.269, 470.537,453.922, 454.649,453.922z
	 M 297.813,267.52l-102.743,0.00 c0.00,8.533, 1.174,15.109, 3.524,21.147c 2.345,6.038, 5.533,11.349, 9.564,16.109c 4.023,4.767, 8.755,9.115, 14.189,13.138
	c 5.436,4.029, 11.17,8.10, 17.215,12.256c 3.084,2.149, 6.368,4.32, 9.858,6.531c 3.49,2.219, 6.678,4.656, 9.569,7.345
	c 2.879,2.681, 5.294,5.697, 7.245,9.054c 1.946,3.348, 2.922,7.175, 2.922,11.472c0.00,6.845-1.988,12.18-5.941,16.009
	c-3.966,3.818-9.028,5.734-15.20,5.734c-4.163,0.00-7.689-0.976-10.566-2.92c-2.893-1.946-5.21-4.50-6.95-7.653
	c-1.743-3.154-2.985-6.316-3.722-10.136c-0.737-3.826-1.109-7.634-1.109-11.047l-27.375,0.00 c-0.275,6.827, 0.667,15.203, 2.814,22.12
	c 2.15,6.909, 5.366,12.781, 9.661,17.951c 4.297,5.166, 9.697,9.108, 16.212,11.994c 6.508,2.886, 13.986,4.292, 22.439,4.292
	c 6.444,0.00, 12.582-1.031, 18.422-3.04c 5.835-2.016, 10.974-4.91, 15.404-8.666c 4.424-3.765, 7.95-8.395, 10.566-13.901
	c 2.618-5.504, 3.927-11.672, 3.927-18.517c0.00-7.119-1.145-13.222-3.42-18.319c-2.29-5.105-5.308-9.634-9.066-13.594
	s-8.018-7.549-12.778-10.772c-4.768-3.222-9.562-6.41-14.394-9.562c-4.838-3.154-9.535-6.687-14.099-10.31
	c-4.564-3.622-8.586-7.702-12.076-12.822L 297.813,291.413 L 297.813,267.52 z M 270.507,223.147l 58.027,0.00 l0.00-27.307 l-58.027,0.00 L 270.507,223.147 z M 98.133,195.84l 58.027,0.00 l0.00,27.307 l-58.027,0.00 L 98.133,195.84 z M 183.467,195.84l 58.027,0.00 
	l0.00,27.307 l-58.027,0.00 L 183.467,195.84 z M 413.867,223.147l-58.027,0.00 l0.00-27.307 l 58.027,0.00 L 413.867,223.147 z M 485.547,137.813l-29.013,0.00 l0.00-58.027 l 29.013,0.00 L 485.547,137.813 z M 442.88,195.241c0.00,0.00, 13.653-0.338, 13.653-14.379l0.00-14.037 l 29.013,0.00 l0.00,28.414 
	c0.00,0.00, 0.524,27.906-28.235,27.906L 442.88,223.145 L 442.88,195.241 z M 169.813-5.547l0.00,29.013 l-58.027,0.00 l0.00-29.013 L 169.813-5.547 z M 413.867,23.467l-42.667,0.00 l0.00-29.013 l 42.667,0.00 L 413.867,23.467 z M 26.453,79.787l 29.013,0.00 l0.00,58.027 
	l-29.013,0.00 L 26.453,79.787 z M 82.773,23.467l-13.705,0.00 c-13.972,0.00-13.602,13.602-13.602,13.602l0.00,15.411 l-29.013,0.00 l0.00-29.652 c0.00,0.00-0.229-28.375, 28.235-28.375L 82.773-5.547 L 82.773,23.467 z
	 M 456.533,52.48l0.00-15.411 c0.00,0.00-1.707-14.38-13.653-14.38L 442.88-5.547 l 12.03,0.00 c 31.16,0.00, 30.636,28.375, 30.636,28.375L 485.547,52.48 L 456.533,52.48 z M 342.187,23.467l-58.027,0.00 l0.00-29.013 l 58.027,0.00 
	L 342.187,23.467 z M 255.147,23.467l-56.32,0.00 l0.00-29.013 l 56.32,0.00 L 255.147,23.467 z M 55.467,166.827l0.00,14.037 c0.00,13.157, 13.653,14.379, 13.653,14.379L 69.12,223.147 l-14.432,0.00 
	c-15.882,0.00-28.235-11.097-28.235-27.057L 26.453,166.827 L 55.467,166.827 z M 270.507,37.12l0.00,141.653 l-23.494,0.00 c-0.809-6.827-2.493-10.267-5.033-13.891
	c-2.557-3.623-5.675-6.726-9.359-8.946c-3.70-2.202-7.902-3.849-12.529-4.719c-4.635-0.887-9.318-1.348-14.438-1.22l0.00-20.719 l 35.84,0.00 l0.00-92.16 L 270.507,37.118 z"  />
<glyph unicode="&#xe038;" d="M 403.633,468.115L 507.377,85.548L 400.198,57.167L 329.977,316.133L 352.534,44.563L 263.188,20.915L 145.345,267.237L 215.545,8.291L 108.346-20.113L 4.623,362.429L 171.382,406.591L 264.317,191.514L 236.894,423.951 z"  />
<glyph unicode="&#xe039;" d="M 430.969,82.935c 19.686,41.074, 43.742,64.732, 43.742,174.408c0.00,168.049-202.15,123.523-200.361,98.055
	c-1.417,20.185, 28.204,53.106, 45.814,55.136c 2.975,2.831-18.335,51.825-51.055,4.282c-10.126-14.73-14.971-39.422-13.768-59.721
	c-0.756,0.094-1.512,0.164-2.268,0.259c-15.155,29.744-33.664,75.855-57.363,80.433c-26.44,5.122-76.413,7.956-102.072-29.413
	c 20.939,0.826, 79.602-13.699, 123.578-40.80c-18.695,6.75-38.122,13.431-63.263,9.441c-50.21-7.979-116.661-53.443-116.661-117.675
	c0.00-99.878, 44.262-153.445, 58.33-174.406c 14.07-20.963, 41.569-71.62, 72.893-73.557c 41.10-2.524, 57.576,30.263, 87.485,29.411
	c 27.452,0.00, 62.273-29.411, 87.484-29.411C 376.368,9.378, 411.279,41.907, 430.969,82.935z"  />
<glyph unicode="&#xe03a;" d="M 416.28,55.936c0.00-12.556-0.113-48.906-0.113-48.906S 331.037,6.40, 256.00,6.40c-76.192,0.00-159.573,0.00-159.573,0.00s0.00,31.903,0.00,49.763
	c0.00,45.664, 58.006,80.207, 128.403,87.064c-22.803,16.189-38.77,48.993-38.77,87.252c0.00,54.204, 31.305,98.161, 70.036,98.161
	c 38.711,0.00, 70.064-43.957, 70.064-98.161c0.00-38.617-16.075-71.665-39.217-87.687C 354.877,135.043, 416.28,100.557, 416.28,55.936z
	 M 398.307,285.74c 15.607,14.962, 25.986,41.117, 25.986,70.946c0.00,46.476-25.093,84.145-56.096,84.145
	c-30.833,0.00-55.815-37.309-56.078-83.446c 33.522-24.943, 56.078-71.59, 56.078-124.959c0.00-22.992-4.185-44.58-11.61-63.86
	c 3.901-0.077, 7.803-0.036, 11.61-0.036c 56.55,0.00, 112.232,0.00, 112.232,0.00s0.00,37.854,0.00,47.91C 480.427,252.199, 452.207,279.434, 398.307,285.74z
	 M 87.689,356.687c0.00-30.056, 10.53-56.344, 26.325-71.229C 61.251,278.639, 31.573,251.708, 31.573,216.443c0.00-14.28,0.00-47.91,0.00-47.91
	s 55.151,0.00, 112.232,0.00c 3.808,0.00, 7.689-0.041, 11.629,0.036c-7.443,19.297-11.629,41.021-11.629,63.993c0.00,53.39, 22.557,99.949, 56.079,124.911
	c-0.266,46.116-25.265,83.383-56.079,83.383C 112.821,440.856, 87.689,403.162, 87.689,356.687z"  />
<glyph unicode="&#xe03b;" d="M 429.984,339.975c 0.009,0.009, 0.02,0.02, 0.024,0.032c 0.031,0.048, 0.026,0.094, 0.041,0.143
		c-0.027-0.065-0.036-0.126-0.077-0.189C 429.974,339.966, 429.981,339.97, 429.984,339.975zM 238.432,382.718c-32.254,0.00-59.887-27.044-71.113-65.172l 142.227,0.00 C 298.319,355.674, 270.684,382.718, 238.432,382.718z
		 M 196.277,335.015c 2.169,3.54, 4.536,6.811, 7.072,9.783l 70.161,0.00 c 2.54-2.973, 4.903-6.243, 7.076-9.783L 196.277,335.015 zM 292.533,166.369c-2.79,4.697-7.122,9.209-12.986,13.539c-5.869,4.326-14.235,7.962-25.098,10.897
		c-2.057,0.585-4.00,1.103-5.832,1.541c-1.838,0.439-3.633,0.884-5.393,1.319l0.00,38.965 c 4.987,0.00, 9.245-2.057, 12.766-6.164
		c 3.523-4.11, 5.357-9.102, 5.506-14.971l 31.259,0.00 c-0.444,7.631-2.058,14.234-4.845,19.813c-2.79,5.577-6.385,10.237-10.788,13.979
		c-4.405,3.743-9.499,6.676-15.299,8.808c-5.799,2.125-11.996,3.555-18.599,4.291l0.00,16.951 l-12.991,0.00 l0.00-16.951 
		c-6.605-0.439-12.986-1.727-19.151-3.852c-6.164-2.13-11.595-5.139-16.29-9.025c-4.698-3.891-8.477-8.697-11.337-14.421
		c-2.862-5.724-4.292-12.329-4.292-19.811c0.00-7.342, 1.244-13.467, 3.741-18.383c 2.493-4.919, 5.833-9.025, 10.016-12.326
		c 4.185-3.304, 8.917-5.946, 14.199-7.929c 5.284-1.981, 10.639-3.707, 16.072-5.173c 1.464-0.295, 2.825-0.625, 4.074-0.992
		c 1.244-0.365, 2.237-0.695, 2.97-0.99l0.00-46.008 c-6.752,1.319-12.402,4.403-16.951,9.245c-4.55,4.844-6.752,11.448-6.605,19.816l-31.039,0.00 
		c 1.464-17.321, 6.825-30.457, 16.07-39.407c 9.245-8.951, 22.084-14.013, 38.523-15.188l0.00-18.712 l 12.991,0.00 l0.00,18.712 
		c 11.006,0.736, 20.028,2.937, 27.076,6.603c 7.043,3.664, 12.655,7.849, 16.84,12.546c 4.181,4.697, 7.076,9.503, 8.694,14.42
		c 1.613,4.917, 2.425,8.991, 2.425,12.218c0.00,3.666-0.263,7.851-0.775,12.547C 296.97,156.977, 295.32,161.671, 292.533,166.369z
		 M 230.234,196.75c-7.043,1.613-12.109,3.743-15.188,6.385c-3.082,2.64-4.625,6.383-4.625,11.226c0.00,3.081, 0.551,5.757, 1.65,8.032
		c 1.103,2.275, 2.606,4.185, 4.516,5.726c 1.908,1.539, 4.035,2.674, 6.383,3.412c 2.345,0.734, 4.767,1.103, 7.264,1.103L 230.234,196.75 z
		 M 264.80,131.919c-1.473-2.569-3.343-4.729-5.617-6.494c-2.277-1.76-4.844-3.12-7.704-4.072
		c-2.862-0.957-5.613-1.58-8.253-1.874l0.00,42.271 c 8.656-2.353, 14.78-4.956, 18.379-7.82c 3.594-2.86, 5.395-7.153, 5.395-12.875
		C 266.998,137.532, 266.262,134.487, 264.80,131.919zM 456.533,453.547l-402.773,0.00 c-15.08,0.00-27.307-12.227-27.307-27.307l0.00-402.773 c0.00-15.082, 12.227-27.307, 27.307-27.307l 402.773,0.00 c 15.082,0.00, 27.307,12.225, 27.307,27.307l0.00,402.773 
		C 483.84,441.32, 471.615,453.547, 456.533,453.547z M 440.858,70.545c-0.026-0.101-0.073-0.20-0.131-0.302
		c-0.002-0.007-0.014-0.019-0.019-0.026c-0.007-0.009-0.015-0.02-0.02-0.031c-0.051-0.08-0.109-0.159-0.179-0.242
		c-0.085-0.094-0.183-0.188-0.299-0.285c-0.034-0.027-0.068-0.055-0.104-0.084l-33.381-26.165c-0.09-0.072-0.177-0.135-0.276-0.20
		c-0.137-0.096-0.285-0.184-0.451-0.28c-0.032-0.017-0.07-0.036-0.104-0.051c-0.039-0.026-0.082-0.041-0.121-0.067
		c-0.102-0.049-0.193-0.106-0.299-0.155c-0.191-0.094-0.393-0.183-0.608-0.276c-0.036-0.017-0.084-0.034-0.121-0.048
		c-0.043-0.02-0.084-0.034-0.126-0.049c-0.147-0.061-0.287-0.119-0.44-0.177c-0.254-0.097-0.529-0.191-0.806-0.287
		c-0.017-0.003-0.036-0.012-0.049-0.015c-0.044-0.015-0.092-0.032-0.138-0.043c-0.241-0.079-0.485-0.159-0.744-0.237
		c-0.212-0.061-0.433-0.121-0.655-0.183c-0.09-0.027-0.174-0.048-0.265-0.077c-0.056-0.014-0.108-0.029-0.167-0.043
		c-0.416-0.111-0.848-0.224-1.295-0.324c-0.063-0.017-0.128-0.032-0.186-0.043c-0.177-0.041-0.369-0.085-0.551-0.121
		c-0.283-0.065-0.561-0.13-0.857-0.195c-0.154-0.031-0.321-0.06-0.473-0.09c-0.268-0.056-0.539-0.109-0.817-0.164
		c-0.207-0.036-0.406-0.079-0.62-0.118l0.00,0.002 c-0.218-0.043-0.457-0.08-0.676-0.118c-0.307-0.055-0.608-0.106-0.923-0.16
		c-0.147-0.022-0.29-0.048-0.442-0.073c-0.386-0.061-0.795-0.121-1.196-0.179c-0.189-0.031-0.382-0.06-0.577-0.09
		c-0.068-0.009-0.133-0.022-0.20-0.031c-0.633-0.092-1.275-0.176-1.932-0.258c-0.061-0.01-0.13-0.015-0.193-0.022
		c-0.265-0.036-0.541-0.063-0.809-0.097c-0.442-0.051-0.87-0.106-1.316-0.155c-0.08-0.009-0.171-0.014-0.249-0.022
		c-1.329-0.145-2.693-0.275-4.096-0.391c-0.106-0.007-0.205-0.02-0.317-0.027c-0.608-0.049-1.224-0.096-1.84-0.14
		c-0.036-0.002-0.075-0.005-0.106-0.005c-0.005,0.00-0.014-0.002-0.019-0.002c-0.401-0.029-0.807-0.058-1.215-0.082
		c-0.403-0.024-0.811-0.046-1.219-0.068c-0.148-0.009-0.304-0.015-0.452-0.026c-0.072-0.003-0.15-0.005-0.222-0.009
		c-0.128-0.01-0.259-0.019-0.386-0.026c-0.357-0.015-0.71-0.032-1.07-0.044c-0.36-0.019-0.724-0.031-1.089-0.044
		c-0.109-0.007-0.215-0.01-0.323-0.014c-0.085-0.002-0.169-0.003-0.249-0.007c-0.176-0.009-0.352-0.012-0.527-0.02
		c-0.389-0.012-0.777-0.022-1.167-0.031c-0.406-0.012-0.821-0.02-1.236-0.027c-0.017,0.00-0.038,0.00-0.056-0.002
		c-0.027,0.00-0.053-0.002-0.079-0.002c-0.387-0.007-0.773-0.012-1.166-0.017c-0.463-0.007-0.923-0.009-1.386-0.012
		c-0.184,0.00-0.367,0.00-0.551,0.00L 106.168,37.968 c-0.30,0.00-0.599,0.00-0.894,0.003c-0.493,0.00-0.98,0.005-1.459,0.014
		c-0.065,0.002-0.126,0.003-0.191,0.003c-0.109,0.003-0.215,0.003-0.324,0.009c-0.324,0.003-0.65,0.009-0.968,0.015
		c-0.379,0.01-0.749,0.024-1.121,0.034c-0.104,0.005-0.212,0.005-0.314,0.009c-0.01,0.00-0.022,0.002-0.034,0.002
		c-0.498,0.017-0.99,0.036-1.471,0.056c-0.181,0.007-0.357,0.017-0.536,0.026c-0.181,0.012-0.362,0.019-0.541,0.027
		c-0.138,0.009-0.282,0.017-0.42,0.024c-0.514,0.029-1.015,0.058-1.507,0.092c-0.012,0.002-0.022,0.003-0.032,0.003
		c-0.123,0.009-0.237,0.02-0.358,0.027c-0.387,0.027-0.773,0.056-1.147,0.089c-0.13,0.007-0.251,0.024-0.381,0.034
		c-0.237,0.02-0.471,0.043-0.705,0.065c-0.186,0.019-0.386,0.034-0.568,0.051c-0.198,0.022-0.382,0.044-0.579,0.065
		c-0.271,0.031-0.539,0.06-0.802,0.089c-0.133,0.02-0.278,0.032-0.408,0.048c-0.162,0.019-0.302,0.044-0.461,0.065
		c-0.404,0.055-0.797,0.111-1.179,0.167c-0.142,0.024-0.302,0.041-0.442,0.061c-0.125,0.02-0.232,0.046-0.355,0.067
		c-0.285,0.046-0.56,0.096-0.829,0.147c-0.259,0.048-0.515,0.099-0.759,0.147c-0.263,0.051-0.509,0.109-0.751,0.171
		c-0.224,0.049-0.447,0.101-0.657,0.154c-0.234,0.06-0.449,0.123-0.662,0.186c-0.189,0.053-0.381,0.109-0.556,0.167
		c-0.20,0.065-0.381,0.13-0.561,0.20c-0.157,0.055-0.319,0.113-0.461,0.174c-0.169,0.073-0.311,0.147-0.457,0.22
		c-0.119,0.058-0.249,0.116-0.355,0.177c-0.137,0.079-0.241,0.16-0.352,0.241c-0.08,0.06-0.177,0.118-0.244,0.177
		c-0.104,0.094-0.174,0.189-0.246,0.283c-0.038,0.053-0.097,0.102-0.126,0.157c-0.085,0.148-0.137,0.30-0.14,0.454
		c-1.783,44.971-3.569,89.924-5.35,134.895c-1.783,44.969-3.567,89.926-5.35,134.893c 0.002-0.075, 0.046-0.15, 0.068-0.225
		c-0.14,0.469, 0.067,0.959, 0.717,1.469l 33.381,26.165c 3.13,2.454, 14.916,4.526, 28.322,5.202c-1.225-3.275-2.369-6.613-3.408-10.015
		c-9.894-0.736-17.091-2.185-19.215-3.152l-17.657-13.841c 0.695-0.009, 1.41-0.014, 2.15-0.014l 50.384,0.00 
		C 157.92,371.007, 194.85,410.027, 238.432,410.027c 43.581,0.00, 80.51-39.02, 92.58-92.481l 27.566,0.00 c 16.138,0.00, 28.803,2.273, 31.744,3.616l 17.659,13.838
		c-0.693,0.01-1.408,0.015-2.152,0.015l-59.291,0.00 c-1.027,3.323-2.156,6.579-3.357,9.783l 62.648,0.00 c 14.582,0.00, 24.426-1.823, 24.342-4.26
		c0.00,0.024, 0.02,0.048, 0.02,0.068c 3.567-89.935, 7.136-179.854, 10.701-269.786C 440.893,70.728, 440.881,70.639, 440.858,70.545z"  />
<glyph unicode="&#xe03c;" d="M 262.618,142.935c-4.161,3.313-10.885,6.323-21.125,9.047l0.00-48.903 c 3.413,0.338, 6.101,1.06, 9.414,2.169
		c 3.309,1.103, 6.211,2.673, 8.846,4.71c 2.628,2.039, 4.758,4.541, 6.461,7.511c 1.693,2.971, 2.596,6.496, 2.596,10.571
		C 268.809,134.658, 266.778,139.626, 262.618,142.935zM 210.403,228.765c-2.208-1.783-3.949-3.99-5.224-6.624c-1.273-2.632-1.911-5.728-1.911-9.291
		c0.00-5.603, 1.756-9.935, 5.321-12.988c 3.564-3.057, 9.009-5.521, 17.543-7.388l0.00,41.513 c-3.413,0.00-5.663-0.427-8.376-1.275
		C 215.04,231.861, 212.608,230.547, 210.403,228.765zM 457.521,358.905c0.00-0.024-0.022-0.382-0.022-0.408c 0.097,2.818-11.293,4.596-28.162,4.596l-72.48,0.00 c 1.389-3.413, 2.695-6.827, 3.884-10.24
		l 68.594,0.00 c 0.858,0.00, 1.686-0.215, 2.488-0.227l-20.429-16.039c-3.401-1.555-18.055-4.214-36.726-4.214l-31.892,0.00 
		c-13.962,61.44-56.689,106.994-107.109,106.994c-50.418,0.00-93.145-45.554-107.107-106.994L 70.275,332.373 c-0.855,0.00-1.684-0.068-2.488-0.058
		l 20.427,15.974c 2.459,1.12, 10.784,2.777, 22.231,3.627c 1.203,3.936, 2.526,7.788, 3.944,11.578c-15.51-0.782-29.146-3.183-32.766-6.023
		L 43.005,327.197c-0.753-0.591-0.992-1.159-0.829-1.702c-0.026,0.087-0.077,0.174-0.079,0.259
		c 2.062-52.023, 4.127-104.037, 6.19-156.063c 2.062-52.024, 4.127-104.035, 6.19-156.061c 0.005-0.177, 0.063-0.353, 0.162-0.527
		c 0.034-0.061, 0.102-0.118, 0.145-0.179c 0.084-0.108, 0.164-0.22, 0.285-0.326c 0.079-0.068, 0.188-0.135, 0.282-0.205
		c 0.13-0.094, 0.249-0.186, 0.408-0.278c 0.121-0.07, 0.273-0.138, 0.41-0.207c 0.171-0.084, 0.335-0.169, 0.529-0.253
		c 0.162-0.07, 0.352-0.137, 0.532-0.201c 0.21-0.08, 0.418-0.157, 0.649-0.232c 0.203-0.065, 0.425-0.13, 0.643-0.191
		c 0.247-0.073, 0.497-0.147, 0.766-0.215c 0.242-0.061, 0.50-0.121, 0.759-0.179c 0.282-0.067, 0.567-0.135, 0.869-0.195
		c 0.282-0.056, 0.579-0.113, 0.879-0.171c 0.312-0.06, 0.63-0.114, 0.959-0.171c 0.142-0.024, 0.266-0.053, 0.411-0.077
		c 0.162-0.024, 0.348-0.043, 0.512-0.072c 0.442-0.063, 0.898-0.128, 1.365-0.193c 0.183-0.022, 0.346-0.053, 0.532-0.075
		c 0.15-0.019, 0.317-0.032, 0.471-0.055c 0.302-0.032, 0.613-0.067, 0.927-0.102c 0.227-0.024, 0.44-0.051, 0.671-0.077
		c 0.213-0.02, 0.442-0.038, 0.659-0.058c 0.27-0.026, 0.539-0.053, 0.814-0.075c 0.15-0.014, 0.29-0.032, 0.44-0.038
		c 0.433-0.038, 0.881-0.073, 1.328-0.102c 0.142-0.01, 0.273-0.024, 0.415-0.032c 0.012,0.00, 0.024-0.002, 0.038-0.003
		c 0.568-0.039, 1.15-0.075, 1.743-0.108c 0.159-0.007, 0.326-0.017, 0.486-0.026c 0.207-0.012, 0.415-0.019, 0.625-0.032
		c 0.208-0.009, 0.411-0.41, 0.621-0.416c 0.558-0.027, 1.125-0.454, 1.702-0.454c 0.014,0.00, 0.027,0.00, 0.039,0.00c 0.119,0.00, 0.242,0.384, 0.362,0.377
		c 0.43-0.012, 0.86,0.167, 1.299,0.155c 0.369-0.009, 0.746,0.084, 1.12,0.079c 0.126-0.005, 0.249,0.043, 0.375,0.039
		c 0.073,0.00, 0.145,0.024, 0.22,0.02c 0.555-0.01, 1.118-0.341, 1.688-0.341c 0.343-0.003, 0.688-0.328, 1.036-0.328l 304.396,0.00 
		c 0.213,0.00, 0.427,0.00, 0.64,0.00c 0.532,0.00, 1.067,0.343, 1.601,0.353c 0.454,0.003, 0.899-0.177, 1.347-0.171c 0.031,0.00, 0.06-0.183, 0.092-0.183
		c 0.022,0.00, 0.044,0.00, 0.065,0.00c 0.48,0.00, 0.959,0.374, 1.43,0.387c 0.451,0.01, 0.899,0.198, 1.35,0.212
		c 0.20,0.01, 0.404,0.106, 0.608,0.113c 0.094,0.005, 0.189,0.049, 0.287,0.051c 0.126,0.003, 0.249,0.031, 0.375,0.038
		c 0.422,0.017, 0.841,0.039, 1.258,0.061c 0.416,0.015, 0.824,0.041, 1.239,0.06c 0.145,0.007, 0.297,0.019, 0.447,0.031
		c 0.082,0.003, 0.174,0.009, 0.254,0.012c 0.172,0.012, 0.352,0.02, 0.524,0.031c 0.473,0.026, 0.942,0.321, 1.41,0.348
		c 0.471,0.027, 0.94,0.364, 1.405,0.364c 0.005,0.00, 0.015,0.00, 0.02,0.00c 0.038,0.00, 0.082-0.263, 0.125-0.261
		c 0.713,0.051, 1.425-0.029, 2.128,0.029c 0.128,0.007, 0.244-0.044, 0.367-0.038c 1.621,0.133, 3.20,0.249, 4.738,0.418
		c 0.094,0.01, 0.198,0.00, 0.29,0.009c 0.515,0.056, 1.01,0.111, 1.522,0.172c 0.309,0.038, 0.628,0.068, 0.935,0.108
		c 0.073,0.007, 0.152,0.01, 0.224,0.022c 0.759,0.097, 1.502,0.193, 2.234,0.30c 0.08,0.009, 0.155,0.022, 0.234,0.034
		c 0.227,0.032, 0.447,0.067, 0.667,0.102c 0.464,0.068, 0.939,0.137, 1.386,0.208c 0.176,0.031, 0.341,0.06, 0.512,0.087
		c 0.364,0.061, 0.712,0.119, 1.067,0.183c 0.254,0.046, 0.532,0.089, 0.783,0.137l0.00-0.002 c 0.247,0.046, 0.476,0.096, 0.717,0.138
		c 0.321,0.061, 0.635,0.123, 0.947,0.186c 0.177,0.036, 0.369,0.07, 0.544,0.106c 0.341,0.075, 0.664,0.15, 0.993,0.225
		c 0.212,0.041, 0.432,0.094, 0.637,0.14c 0.068,0.014, 0.143,0.032, 0.217,0.049c 0.517,0.118, 1.015,0.249, 1.498,0.377
		c 0.067,0.019, 0.126,0.036, 0.193,0.049c 0.106,0.034, 0.201,0.056, 0.307,0.089c 0.254,0.072, 0.512,0.14, 0.756,0.212
		c 0.30,0.092, 0.582,0.184, 0.86,0.275c 0.055,0.014, 0.108,0.032, 0.16,0.049c 0.015,0.005, 0.039,0.014, 0.056,0.017
		c 0.321,0.109, 0.638,0.22, 0.934,0.333c 0.177,0.065, 0.338,0.133, 0.509,0.201c 0.049,0.02, 0.096,0.036, 0.147,0.058
		c 0.043,0.019, 0.099,0.036, 0.142,0.056c 0.249,0.108, 0.481,0.213, 0.703,0.321c 0.121,0.058, 0.229,0.121, 0.345,0.179
		c 0.044,0.029, 0.096,0.048, 0.14,0.077c 0.038,0.02, 0.085,0.039, 0.121,0.06c 0.189,0.109, 0.362,0.213, 0.521,0.323
		c 0.114,0.077, 0.215,0.15, 0.321,0.232l 38.617,30.269c 0.039,0.034, 0.082,0.067, 0.119,0.097c 0.133,0.113, 0.247,0.224, 0.345,0.331
		c 0.082,0.096, 0.15,0.186, 0.208,0.278c 0.005,0.012, 0.017,0.027, 0.024,0.036c 0.005,0.009, 0.02,0.02, 0.022,0.031
		c 0.068,0.116, 0.123,0.232, 0.152,0.348c 0.029,0.108, 0.039,0.212, 0.036,0.319C 465.778,150.828, 461.648,254.858, 457.521,358.905z
		 M 235.674,407.774c 37.315,0.00, 69.286-31.027, 82.272-75.401L 153.40,332.373 C 166.39,376.747, 198.359,407.774, 235.674,407.774z M 302.087,112.375
		c-1.872-5.69-5.221-11.249-10.059-16.683c-4.842-5.436-11.199-10.274-19.347-14.513c-8.153-4.241-19.241-6.789-31.188-7.641L 241.493,52.48 l-15.36,0.00 
		l0.00,21.059 c-18.773,1.359-33.843,6.919-44.539,17.275c-10.697,10.353-16.867,26.52-18.562,45.293l 35.91,0.00 c-0.171-8.533, 2.347-17.026, 7.61-22.629
		c 5.262-5.601, 11.049-8.871, 19.582-10.40l0.00,53.228 c0.00,0.34-1.968,0.722-3.408,1.147c-1.446,0.423-3.002,0.806-4.698,1.147
		c-6.282,1.695-12.471,3.693-18.586,5.984c-6.11,2.294-11.581,5.352-16.423,9.173c-4.837,3.818-8.701,8.569-11.587,14.257
		c-2.888,5.688-4.328,12.773-4.328,21.267c0.00,8.658, 1.654,16.299, 4.966,22.921c 3.309,6.622, 7.682,12.182, 13.117,16.684
		c 5.431,4.495, 11.686,7.977, 18.818,10.44c 7.13,2.459, 15.30,3.948, 22.127,4.456L 226.133,282.88 l 15.36,0.00 l0.00-19.096 c 6.827-0.852, 14.674-2.507, 21.383-4.965
		c 6.707-2.466, 12.535-5.859, 17.63-10.189c 5.093-4.33, 9.219-9.743, 12.447-16.195c 3.224-6.455, 5.059-14.409, 5.571-22.943l-36.163,0.00 
		c-0.172,6.827-2.159,12.585-6.233,17.34c-4.076,4.751-9.513,7.153-14.633,7.153l0.00-45.08 c 1.707-0.507, 3.975-1.021, 6.101-1.527
		c 2.12-0.509, 4.301-1.108, 6.68-1.783c 12.564-3.396, 22.209-7.601, 29.001-12.607c 6.784-5.009, 11.778-10.23, 15.007-15.664
		c 3.226-5.437, 5.123-10.865, 5.721-16.30c 0.594-5.434, 0.893-10.274, 0.893-14.517C 304.896,122.774, 303.952,118.062, 302.087,112.375z
		 M 457.313,358.212c-0.003-0.014-0.017-0.027-0.026-0.038c-0.003-0.007-0.015-0.01-0.015-0.015c 0.049,0.073, 0.058,0.145, 0.09,0.22
		C 457.344,358.32, 457.349,358.267, 457.313,358.212z"  />
<glyph unicode="&#xe03d;" d="M 348.916,316.476l-32.476,32.461L 154.035,186.566c-26.907-26.896-26.907-70.524,0.00-97.422
	c 26.902-26.896, 70.53-26.896, 97.437,0.00l 194.886,194.854c 44.857,44.831, 44.857,117.531,0.00,162.363
	c-44.833,44.852-117.556,44.852-162.391,0.00L 79.335,241.788l 0.017-0.016c-0.145-0.152-0.306-0.288-0.438-0.423
	c-62.551-62.548-62.551-163.928,0.00-226.453c 62.527-62.528, 163.934-62.528, 226.494,0.00c 0.137,0.137, 0.258,0.284, 0.41,0.438l 0.016-0.017
	l 139.666,139.646l-32.493,32.46L 273.35,47.792l-0.008,0.00 c-0.148-0.134-0.282-0.285-0.423-0.422
	c-44.537-44.529-116.99-44.529-161.538,0.00c-44.531,44.521-44.531,116.961,0.00,161.489c 0.152,0.152, 0.302,0.291, 0.444,0.423l-0.023,0.03
	l 204.64,204.583c 26.856,26.869, 70.572,26.869, 97.443,0.00c 26.856-26.867, 26.856-70.574,0.00-97.42L 218.999,121.625
	c-8.968-8.961-23.527-8.961-32.486,0.00c-8.947,8.943-8.947,23.516,0.00,32.46L 348.916,316.476z"  />
<glyph unicode="&#xe03e;" d="M0.00,416.00l0.00-384.00 l 512.00,0.00 L 512.00,416.00 L0.00,416.00 z M 96.00,64.00L 32.00,64.00 l0.00,64.00 l 64.00,0.00 L 96.00,64.00 z M 96.00,192.00L 32.00,192.00 l0.00,64.00 l 64.00,0.00 L 96.00,192.00 z M 96.00,320.00L 32.00,320.00 L 32.00,384.00 l 64.00,0.00 L 96.00,320.00 z M 384.00,64.00L 128.00,64.00 L 128.00,384.00 l 256.00,0.00 L 384.00,64.00 z
		 M 480.00,64.00l-64.00,0.00 l0.00,64.00 l 64.00,0.00 L 480.00,64.00 z M 480.00,192.00l-64.00,0.00 l0.00,64.00 l 64.00,0.00 L 480.00,192.00 z M 480.00,320.00l-64.00,0.00 L 416.00,384.00 l 64.00,0.00 L 480.00,320.00 zM 192.00,320.00L 192.00,128.00L 320.00,224.00 	z"  />
<glyph unicode="&#xe03f;" d="M 160.00,128.00c 8.80-8.80, 23.637-8.363, 32.971,0.971L 351.03,287.029C 360.364,296.363, 360.80,311.20, 352.00,320.00
		s-23.637,8.363-32.971-0.971L 160.971,160.971C 151.637,151.637, 151.20,136.80, 160.00,128.00zM 238.444,142.444c 2.28-4.525, 3.495-9.58, 3.495-14.848c0.00-8.808-3.372-17.03-9.496-23.154l-81.691-81.691
		c-6.124-6.124-14.347-9.496-23.154-9.496s-17.03,3.372-23.154,9.496l-49.691,49.691c-6.124,6.124-9.496,14.347-9.496,23.154
		s 3.372,17.03, 9.496,23.154l 81.691,81.691c 6.124,6.124, 14.347,9.497, 23.154,9.497c 5.268,0.00, 10.322-1.215, 14.848-3.495l 32.669,32.669
		c-13.935,10.705-30.72,16.08-47.517,16.08c-19.993,0.00-39.986-7.583-55.154-22.751l-81.691-81.691
		c-30.335-30.335-30.335-79.974,0.00-110.309l 49.691-49.691C 87.611-24.416, 107.604-32.00, 127.597-32.00
		c 19.994,0.00, 39.987,7.584, 55.154,22.751l 81.691,81.691c 27.91,27.91, 30.119,72.149, 6.672,102.672L 238.444,142.444zM 489.249,407.558l-49.691,49.691C 424.391,472.417, 404.398,480.00, 384.404,480.00c-19.993,0.00-39.986-7.583-55.154-22.751l-81.691-81.691
		c-27.91-27.91-30.119-72.149-6.671-102.671l 32.669,32.67c-2.279,4.525-3.494,9.58-3.494,14.847c0.00,8.808, 3.372,17.03, 9.496,23.154
		l 81.691,81.691c 6.124,6.124, 14.347,9.497, 23.154,9.497s 17.03-3.373, 23.154-9.497l 49.691-49.691
		c 6.124-6.124, 9.496-14.347, 9.496-23.154s-3.372-17.03-9.496-23.154l-81.691-81.691c-6.124-6.124-14.347-9.496-23.154-9.496
		c-5.268,0.00-10.322,1.215-14.848,3.495l-32.669-32.669c 13.936-10.705, 30.72-16.08, 47.517-16.08c 19.994,0.00, 39.987,7.584, 55.154,22.751
		l 81.691,81.691C 519.584,327.584, 519.584,377.223, 489.249,407.558z"  />
<glyph unicode="&#xe040;" d="M 240.00,128.00c 44.183,0.00, 80.00,35.817, 80.00,80.00L 320.00,400.00 c0.00,44.183-35.817,80.00-80.00,80.00s-80.00-35.817-80.00-80.00l0.00-192.00 C 160.00,163.817, 195.818,128.00, 240.00,128.00zM 352.00,256.00l0.00-48.00 c0.00-61.855-50.145-112.00-112.00-112.00c-61.856,0.00-112.00,50.145-112.00,112.00l0.00,48.00 L 96.00,256.00 l0.00-48.00 c0.00-74.119, 56.002-135.15, 128.00-143.11L 224.00,0.00 
		l-64.00,0.00 l0.00-32.00 l 64.00,0.00 l 32.00,0.00 l 64.00,0.00 l0.00,32.00 l-64.00,0.00 l0.00,64.89 c 71.997,7.96, 128.00,68.991, 128.00,143.11l0.00,48.00 L 352.00,256.00 z"  />
<glyph unicode="&#xe041;" d="M 430.769,4.693L 81.203,4.693 c-30.099,0.00-54.75,24.457-54.75,54.554L 26.453,386.251 C 26.453,416.35, 51.104,441.60, 81.203,441.60l 349.566,0.00 
	c 30.099,0.00, 54.777-25.25, 54.777-55.349l0.00-327.004 C 485.547,29.15, 460.868,4.693, 430.769,4.693z M 458.24,386.251
	c0.00,15.063-12.409,28.042-27.471,28.042L 81.203,414.293 c-15.048,0.00-27.443-12.981-27.443-28.042l0.00-327.004 c0.00-6.253, 2.572-11.762, 6.112-16.367
	l 89.411,161.64l 117.961-38.347l 95.498,191.683l 95.498-134.176L 458.24,386.251 z"  />
<glyph unicode="&#xe042;" d="M 255.991,475.368C 117.171,475.368, 4.628,362.837, 4.628,223.998c0.00-138.825, 112.541-251.366, 251.363-251.366
		c 138.839,0.00, 251.38,112.541, 251.38,251.366C 507.372,362.837, 394.831,475.368, 255.991,475.368z M 255.991,33.905
		c-104.974,0.00-190.09,85.113-190.09,190.094c0.00,42.636, 14.037,81.993, 37.741,113.702l 129.604-129.604
		c-15.147-30.246-22.982-52.396-22.982-52.396l-38.781,74.675l-79.966-48.181c 33.922-12.025, 82.391-50.598, 123.597-101.166
		c 12.013,21.888, 33.367,54.97, 58.291,86.907l 96.287-96.29C 337.981,47.944, 298.627,33.905, 255.991,33.905z M 408.358,110.317
		l-99.297,99.294c 26.076,27.395, 53.035,48.49, 75.682,52.134c-16.968,38.55-23.224,62.08-20.803,98.207
		c-42.892-21.833-77.384-62.879-102.74-102.482L 142.305,376.358c 31.71,23.697, 71.059,37.729, 113.684,37.729
		c 104.992,0.00, 190.095-85.101, 190.095-190.09C 446.085,181.373, 432.053,142.027, 408.358,110.317z"  />
<glyph unicode="&#xe043;" d="M 256.712-22.753c-99.499,0.00-186.808,63.947-217.26,158.537l-2.724,8.856l 68.134,0.00 l 1.691-4.297
	c 25.839-59.709, 84.782-98.372, 150.161-98.372c 76.385,0.00, 140.616,49.761, 158.853,123.148l-49.833,0.00 l 80.852,104.387l 64.266-104.387l-29.423,0.00 
	c-9.173-52.907-35.821-98.483-75.441-132.61C 364.699-3.05, 311.687-22.753, 256.712-22.753zM 0.727,299.947l 35.14,0.00 c 12.353,47.787, 39.989,89.414, 78.222,120.211c 40.428,32.563, 91.078,50.569, 142.624,50.569
	c 92.58,0.00, 175.317-54.704, 210.79-140.102l 3.724-8.491l-70.832,0.00 l-1.864,2.84c-29.129,51.253-82.145,81.492-141.819,81.492
	c-69.156,0.00-129.736-41.663-153.441-106.516l 46.048,0.00 l-77.66-103.914L 0.727,299.947zM 213.108,149.953l-36.54,70.426L 101.154,174.938c 31.988-11.349, 77.681-47.705, 116.531-95.391
	c 27.435,49.971, 111.98,152.18, 153.093,161.263c-15.971,36.335-10.706,74.271-8.421,108.363C 268.687,301.491, 213.108,149.953, 213.108,149.953
	z"  />
<glyph unicode="&#xe044;" d="M 432.51,264.192l-147.092,0.00 L 285.418,323.029 c0.00,64.985-52.688,117.675-117.673,117.675
	s-117.675-52.69-117.675-117.675l0.00-58.837 l 58.837,0.00 L 108.908,323.029 c0.00,29.418, 29.418,58.837, 58.837,58.837c 29.418,0.00, 58.837-29.42, 58.837-58.837
	l0.00-58.837 l-29.418,0.00 c-16.247,0.00-29.418-13.172-29.418-29.418l0.00-198.059 c0.00-16.247, 13.172-29.418, 29.418-29.418l 235.346,0.00 
	c 16.259,0.00, 29.418,13.172, 29.418,29.418l0.00,198.059 C 461.928,251.022, 448.77,264.192, 432.51,264.192z"  />
<glyph unicode="&#xe045;" d="M 379.435,254.86L 379.435,316.576 c0.00,68.166-55.269,123.436-123.435,123.436c-68.166,0.00-123.436-55.269-123.436-123.436l0.00-61.718 
	c-17.043,0.00-30.86-13.817-30.86-30.86l0.00-185.153 c0.00-17.041, 13.817-30.86, 30.86-30.86l 246.871,0.00 c 17.056,0.00, 30.86,13.819, 30.86,30.86L 410.295,224.00 
	C 410.295,241.043, 396.491,254.86, 379.435,254.86z M 194.282,254.86L 194.282,316.576 c0.00,30.86, 30.858,61.718, 61.718,61.718
	c 30.858,0.00, 61.718-30.86, 61.718-61.718l0.00-61.718 L 194.282,254.858 z"  />
<glyph unicode="&#xe046;" d="M 192.001,96.00L 320.001,224.00L 192.001,352.00 z"  />
<glyph unicode="&#xe047;" d="M 384.00,160.00L 256.00,288.00L 128.00,160.00 z"  />
<glyph unicode="&#xe048;" d="M 128.00,288.00L 256.00,160.00L 384.00,288.00 z"  />
<glyph unicode="&#xe049;" d="M 320.001,352.00L 192.001,224.00L 320.001,95.999 z"  />
<glyph unicode="&#xe04a;" d="M 484.618,273.466c 5.644-6.275, 6.902-13.722, 6.902-20.615l0.00-84.668 c0.00-6.909-1.258-13.979-6.902-19.93
		c-5.646-5.97-10.051-9.586-16.309-9.586l-47.978,0.00 l 21.639-119.467L 75.075,19.20 l 21.639,119.467L 48.734,138.667 c-6.277,0.00-14.039,3.616-19.683,9.586
		c-5.644,5.949-10.278,13.022-10.278,19.93l0.00,84.668 c0.00,6.895, 4.634,14.339, 10.278,20.615c 5.644,6.262, 13.406,10.267, 19.683,10.267L 468.309,283.733 
		C 474.568,283.733, 478.973,279.728, 484.618,273.466z M 43.561,315.518c-0.323,5.014, 1.411,7.866, 5.173,9.131
		C 108.31,345.344, 140.605,355.413, 145.632,355.413L 167.253,355.413 L 167.253,427.093 l 180.907,0.00 l0.00-71.68 l 23.253,0.00 c 5.011,0.00, 37.306-9.888, 96.896-30.583c 3.765-1.265, 5.482-4.529, 5.173-9.544
		c-0.323-5.028-3.615-7.66-9.878-7.66L 53.439,307.627 C 47.162,307.627, 43.87,310.489, 43.561,315.518z M 393.052,66.987l-32.928,157.013L 156.921,224.00 l-32.925-157.013
		L 393.052,66.987 z"  />
<glyph unicode="&#xe04b;" d="M 96.00,480.00L 96.00-32.00L 256.00,128.00L 416.00-32.00L 416.00,480.00 z"  />
<glyph unicode="&#xe04c;" d="M 399.282,64.00l-160.00,0.00 c-8.844,0.00-16.00-7.188-16.00-16.00c0.00-8.844, 7.156-16.00, 16.00-16.00l 160.00,0.00 
				c 8.844,0.00, 16.00,7.156, 16.00,16.00C 415.282,56.812, 408.124,64.00, 399.282,64.00z M 160.00,384.00L 128.00,384.00 c-18.376,0.00-32.00-13.624-32.00-32.00l0.00-32.00 c0.00-18.376, 13.624-32.00, 32.00-32.00l 32.00,0.00 
				c 18.376,0.00, 32.00,13.624, 32.00,32.00L 192.00,352.00 C 192.00,370.376, 178.376,384.00, 160.00,384.00z M 160.00,256.00L 128.00,256.00 c-18.376,0.00-32.00-13.624-32.00-32.00l0.00-32.00 c0.00-18.376, 13.624-32.00, 32.00-32.00l 32.00,0.00 
				c 18.376,0.00, 32.00,13.624, 32.00,32.00l0.00,32.00 C 192.00,242.376, 178.376,256.00, 160.00,256.00z M 399.282,192.00l-160.00,0.00 c-8.844,0.00-16.00-7.188-16.00-16.00c0.00-8.844, 7.156-16.00, 16.00-16.00l 160.00,0.00 
				c 8.844,0.00, 16.00,7.156, 16.00,16.00C 415.282,184.812, 408.124,192.00, 399.282,192.00z M 160.00,128.00L 128.00,128.00 c-18.376,0.00-32.00-13.624-32.00-32.00l0.00-32.00 c0.00-18.376, 13.624-32.00, 32.00-32.00
				l 32.00,0.00 c 18.376,0.00, 32.00,13.624, 32.00,32.00l0.00,32.00 C 192.00,114.376, 178.376,128.00, 160.00,128.00z M 448.00,480.00L 64.00,480.00 C 32.00,480.00,0.00,448.00,0.00,416.00l0.00-384.00 c0.00-32.00, 28.656-64.00, 64.00-64.00l 384.00,0.00 
				c 35.344,0.00, 64.00,28.656, 64.00,64.00L 512.00,416.00 C 512.00,448.00, 480.00,480.00, 448.00,480.00z M 480.00,64.00c0.00-31.312-32.688-64.00-64.00-64.00L 96.00,0.00 c-31.328,0.00-64.00,32.688-64.00,64.00L 32.00,384.00 
				c0.00,32.00, 32.00,64.00, 64.00,64.00l 320.00,0.00 c 32.00,0.00, 64.00-32.00, 64.00-64.00L 480.00,64.00 z M 399.282,320.00l-160.00,0.00 c-8.844,0.00-16.00-7.156-16.00-16.00s 7.156-16.00, 16.00-16.00l 160.00,0.00 c 8.844,0.00, 16.00,7.156, 16.00,16.00
				S 408.124,320.00, 399.282,320.00z M 399.282,384.00l-160.00,0.00 c-8.844,0.00-16.00-7.188-16.00-16.00c0.00-8.844, 7.156-16.00, 16.00-16.00l 160.00,0.00 c 8.844,0.00, 16.00,7.156, 16.00,16.00
				C 415.282,376.812, 408.124,384.00, 399.282,384.00z M 399.282,256.00l-160.00,0.00 c-8.844,0.00-16.00-7.156-16.00-16.00s 7.156-16.00, 16.00-16.00l 160.00,0.00 c 8.844,0.00, 16.00,7.156, 16.00,16.00
				S 408.124,256.00, 399.282,256.00z M 399.282,128.00l-160.00,0.00 c-8.844,0.00-16.00-7.156-16.00-16.00s 7.156-16.00, 16.00-16.00l 160.00,0.00 c 8.844,0.00, 16.00,7.156, 16.00,16.00S 408.124,128.00, 399.282,128.00z"  />
<glyph unicode="&#xe04d;" d="M 240.00,288.00c-17.672,0.00-16.00-32.00-16.00-32.00l0.00-192.00 c0.00,0.00, 1.00-32.00, 16.00-32.00c 17.00,0.00, 16.00,32.00, 16.00,32.00l0.00,192.00 
			C 256.00,256.00, 257.672,288.00, 240.00,288.00z M 416.00,384.00l-53.00,0.00 L 352.00,416.00c0.00,0.00-32.00,64.00-64.00,64.00L 192.00,480.00 C 160.00,480.00, 128.00,416.00, 128.00,416.00l-11.00-32.00L 64.00,384.00 C 32.89,384.00,0.00,320.00,0.00,320.00s0.00,0.00, 32.00,0.00
			l 31.578,0.00 l0.00-289.062 C 63.578,30.938, 66.00-32.00, 128.00-32.00l 224.00,0.00 c0.00,0.00, 64.00,3.00, 64.00,64.00L 416.00,320.00 l 32.00,0.00 c 32.00,0.00, 32.00,0.00, 32.00,0.00S 446.11,384.00, 416.00,384.00z M 192.00,448.00l 96.00,0.00 
			c0.00,0.00, 32.00-33.00, 32.00-64.00L 160.00,384.00 C 160.00,416.00, 192.00,448.00, 192.00,448.00z M 352.00,0.00L 128.00,0.00 c-35.344,0.00-32.00-3.344-32.00,32.00L 96.00,320.00 l 288.00,0.00 l0.00-288.00 C 384.00-3.344, 387.344,0.00, 352.00,0.00z
			 M 304.00,288.00c-17.672,0.00-16.00-32.00-16.00-32.00l0.00-192.00 c0.00,0.00-1.672-32.00, 16.00-32.00s 16.00,32.00, 16.00,32.00l0.00,192.00 C 320.00,256.00, 321.672,288.00, 304.00,288.00z M 176.00,288.00c-17.672,0.00-16.00-32.00-16.00-32.00l0.00-192.00 
			c0.00,0.00-1.672-32.00, 16.00-32.00s 16.00,14.328, 16.00,32.00l0.00,192.00 C 192.00,256.00, 193.672,288.00, 176.00,288.00z"  />
<glyph unicode="&#xe04e;" d="M 352.00,448.00L 128.00,448.00 C 110.336,448.00, 96.00,433.664, 96.00,416.00l0.00-256.00 l0.00-160.00 c0.00-17.664, 14.336-32.00, 32.00-32.00l 288.00,0.00 c 17.664,0.00, 32.00,14.336, 32.00,32.00
			L 448.00,352.00 L 352.00,448.00z M 416.00,16.00c0.00-15.152-16.00-16.00-16.00-16.00L 144.00,0.00 c0.00,0.00-16.00,0.848-16.00,16.00l0.00,144.00 L 128.00,400.00 c0.00,0.00, 1.536,16.00, 16.00,16.00l 176.00,0.00 l0.00-64.00 c0.00-33.504, 32.00-32.00, 32.00-32.00l 64.00,0.00 L 416.00,16.00 z M 160.00,232.496l 224.00,0.00 l0.00,16.00 L 160.00,248.496 L 160.00,232.496 z
			 M 160.00,168.496l 224.00,0.00 l0.00,16.00 L 160.00,184.496 L 160.00,168.496 z M 160.00,104.496l 224.00,0.00 l0.00,16.00 L 160.00,120.496 L 160.00,104.496 z M 288.00,312.496L 160.00,312.496 l0.00-16.00 l 128.00,0.00 L 288.00,312.496 z M 160.00,40.496l 224.00,0.00 l0.00,16.00 L 160.00,56.496 L 160.00,40.496 z"  />
<glyph unicode="&#xe04f;" d="M 0.00,480.00 L 512.00,480.00 L 512.00,416.00 L 0.00,416.00 L 0.00,480.00 Z M 0.00,160.00 L 0.00,224.00 L 512.00,224.00 L 512.00,160.00 L 0.00,160.00 Z M 128.00-32.00 L 256.00,96.00 L 384.00-32.00 L 128.00-32.00 Z M 0.00,288.00 L 0.00,352.00 L 512.00,352.00 L 512.00,288.00 L 0.00,288.00 Z"  />
<glyph unicode="&#xe050;" d="M 0.00,480.00 L 512.00,480.00 L 512.00,352.00 L 0.00,352.00 L 0.00,480.00 Z M 0.00,160.00 L 0.00,288.00 L 512.00,288.00 L 512.00,160.00 L 0.00,160.00 Z M 256.00-32.00 L 128.00,96.00 L 384.00,96.00 L 256.00-32.00 Z"  />
<glyph unicode="&#xe051;" d="M 32.00,288.00 C 64.00,288.00 96.00,288.00 96.00,288.00 L 224.00,416.00 L 224.00,32.00 L 96.00,160.00 C 96.00,160.00 64.00,160.00 32.00,160.00 C 0.00,160.00 0.00,192.00 0.00,192.00 L 0.00,256.00 C 0.00,256.00 0.00,288.00 32.00,288.00 Z M 512.00,304.00 L 432.00,224.00 L 512.00,144.00 L 464.00,96.00 L 384.128,176.128 L 304.00,96.00 L 256.00,144.00 L 336.208,224.208 L 256.00,304.656 L 304.00,352.00 L 384.00,272.00 L 464.00,352.00 L 512.00,304.00 Z"  />
<glyph unicode="&#xe052;" d="M 405.824,16.512l-42.16,48.32c 51.008,34.512, 84.528,92.912, 84.528,159.12
		c0.00,66.336-33.664,124.832-84.816,159.312l 42.288,48.224c 64.432-46.48, 106.528-122.016, 106.528-207.536C 512.208,138.496, 470.176,63.008, 405.824,16.512z
		 M 329.648,103.808l-42.24,48.384c 19.952,17.60, 32.80,43.056, 32.80,71.744c0.00,28.928-13.056,54.544-33.296,72.16l 42.384,48.304
		c 33.584-29.328, 54.912-72.352, 54.912-120.448C 384.208,176.032, 363.008,133.136, 329.648,103.808z M 31.456,159.952c-36.00,0.00-31.248,32.00-31.248,32.00l0.00,64.00 
		c0.00,30.00, 30.256,31.008, 30.256,31.008l 65.744,0.992l 128.00,128.00l0.00-384.00 l-128.00,128.00L 31.456,159.952 z"  />
<glyph unicode="&#xe053;" d="M 400.00,232.112L 112.00,232.112 L 112.00,216.00 l 288.00,0.00 L 400.00,232.112 z M 400.00,295.856L 112.00,295.856 l0.00-16.112 l 288.00,0.00 L 400.00,295.856 z M 448.00,256.00l 32.00,0.00 
				c0.00,0.00, 32.00-0.304, 32.00,32.00l-64.00,54.16L 448.00,400.00 c0.00,0.00-0.08,32.00-32.00,32.00l-74.192,0.00 L 304.00,464.00c0.00,0.00-16.992,15.888-48.496,15.888S 208.00,464.00, 208.00,464.00l-38.00-32.00L 96.00,432.00 C 67.072,432.00, 64.00,400.00, 64.00,400.00
				l0.00-57.296 L0.00,288.80c0.00-32.00, 32.00-32.80, 32.00-32.80l 32.00,0.00 l0.00-30.72 L0.00,256.00l0.00-256.00 c0.00-28.992, 32.00-32.00, 32.00-32.00l 448.00,0.00 c 30.208,0.00, 32.00,32.00, 32.00,32.00L 512.00,256.00 l-64.00-30.64L 448.00,256.00 z M 480.00,0.00L 304.00,160.00
				c0.00,0.00-16.992,16.00-48.00,16.00s-48.00-16.00-48.00-16.00L 32.00,0.00c0.00,0.00, 45.376,76.512, 64.00,96.00c 18.624,19.472, 104.00,64.00, 104.00,64.00L 80.00,217.60L 80.00,400.00 c0.00,0.00, 2.176,16.00, 15.584,16.00l 321.44,0.00 
				C 429.056,416.00, 432.00,400.00, 432.00,400.00l0.00-182.304 L 311.504,160.00c0.00,0.00, 81.488-40.48, 104.496-64.00S 480.00,0.00, 480.00,0.00z M 304.00,360.32L 112.00,360.32 l0.00-16.128 l 192.00,0.00 L 304.00,360.32 z"  />
<glyph unicode="&#xe054;" d="M 288.00,288.00l-32.00,0.00 l0.00-32.00 l 32.00,0.00 L 288.00,288.00 z M 224.00,288.00l-32.00,0.00 l0.00-32.00 l 32.00,0.00 L 224.00,288.00 z M 288.00,224.00l-32.00,0.00 l0.00-32.00 l 32.00,0.00 L 288.00,224.00 z M 288.00,160.00l-32.00,0.00 l0.00-32.00 l 32.00,0.00 L 288.00,160.00 z
				 M 288.00,96.00l-32.00,0.00 l0.00-32.00 l 32.00,0.00 L 288.00,96.00 z M 352.00,160.00l-32.00,0.00 l0.00-32.00 l 32.00,0.00 L 352.00,160.00 z M 416.00,288.00l-32.00,0.00 l0.00-32.00 l 32.00,0.00 L 416.00,288.00 z M 416.00,224.00l-32.00,0.00 l0.00-32.00 l 32.00,0.00 L 416.00,224.00 z M 352.00,224.00l-32.00,0.00 l0.00-32.00 l 32.00,0.00 L 352.00,224.00 z M 416.00,448.00L 64.00,448.00 C 28.656,448.00,0.00,419.344,0.00,384.00l0.00-352.00 
				c0.00-35.344, 28.656-64.00, 64.00-64.00l 352.00,0.00 c 35.344,0.00, 64.00,28.656, 64.00,64.00L 480.00,384.00 C 480.00,419.344, 451.344,448.00, 416.00,448.00z M 448.00,48.00c0.00-35.344-12.656-48.00-48.00-48.00L 80.00,0.00 c-35.344,0.00-48.00,12.656-48.00,48.00L 32.00,320.00 
				l 416.00,0.00 L 448.00,48.00 z M 416.00,160.00l-32.00,0.00 l0.00-32.00 l 32.00,0.00 L 416.00,160.00 z M 160.00,96.00L 128.00,96.00 l0.00-32.00 l 32.00,0.00 L 160.00,96.00 z M 96.00,160.00L 64.00,160.00 l0.00-32.00 l 32.00,0.00 L 96.00,160.00 z M 96.00,224.00L 64.00,224.00 l0.00-32.00 l 32.00,0.00 L 96.00,224.00 z M 96.00,96.00L 64.00,96.00 l0.00-32.00 l 32.00,0.00 L 96.00,96.00 z M 160.00,160.00L 128.00,160.00 l0.00-32.00 l 32.00,0.00 L 160.00,160.00 z M 224.00,160.00l-32.00,0.00 l0.00-32.00 l 32.00,0.00 L 224.00,160.00 
				z M 224.00,96.00l-32.00,0.00 l0.00-32.00 l 32.00,0.00 L 224.00,96.00 z M 160.00,224.00L 128.00,224.00 l0.00-32.00 l 32.00,0.00 L 160.00,224.00 z M 224.00,224.00l-32.00,0.00 l0.00-32.00 l 32.00,0.00 L 224.00,224.00 z M 352.00,288.00l-32.00,0.00 l0.00-32.00 l 32.00,0.00 L 352.00,288.00 z"  />
<glyph unicode="&#xe055;" d="M 144.00,400.00c 8.848,0.00, 16.00,7.168, 16.00,16.00L 160.00,464.00 c0.00,8.832-7.152,16.00-16.00,16.00C 135.168,480.00, 128.00,472.832, 128.00,464.00l0.00-48.00 
				C 128.00,407.168, 135.168,400.00, 144.00,400.00z M 464.00,448.00l-48.00,0.00 l0.00-32.00 c0.00-26.512-21.504-48.00-48.00-48.00s-48.00,21.488-48.00,48.00c0.00,0.00,0.00,0.00,0.00,0.016L 320.00,448.00 l-128.00,0.00 l0.00-32.00 c0.00-26.512-21.504-48.00-48.00-48.00
				C 117.488,368.00, 96.00,389.488, 96.00,416.00L 96.00,448.00 L 48.00,448.00 C 16.784,448.00,0.00,429.92,0.00,400.00l0.00-384.00 c0.00-28.624, 18.72-48.00, 48.00-48.00l 416.00,0.00 c 31.872,0.00, 48.00,18.72, 48.00,48.00L 512.00,400.00 C 512.00,429.28, 493.92,448.00, 464.00,448.00z M 448.00,32.00L 64.00,32.00 L 64.00,320.00 
				l 384.00,0.00 L 448.00,32.00 z M 234.912,171.696C 228.16,155.776, 227.136,119.504, 224.00,96.00l 43.008,0.00 c 1.312,16.896, 5.248,52.096, 9.024,64.464
				c 4.784,15.904, 7.728,20.64, 15.984,33.616C 298.832,204.752, 309.84,214.848, 320.00,224.00l0.00,32.00 l-128.00,0.00 l0.00-32.00 l 74.00,0.00 
				C 251.408,205.856, 241.664,187.616, 234.912,171.696z M 368.00,400.00c 8.848,0.00, 16.00,7.168, 16.00,16.00L 384.00,464.00 c0.00,8.832-7.152,16.00-16.00,16.00s-16.00-7.168-16.00-16.00l0.00-48.00 
				C 352.00,407.168, 359.152,400.00, 368.00,400.00z"  />
<glyph unicode="&#xe056;" d="M 448.00,32.00l-96.00,0.00 l0.00-32.00 c0.00-17.68-14.336-32.00-32.00-32.00L 32.00-32.00 c-17.664,0.00-32.00,14.32-32.00,32.00L0.00,384.00 c0.00,17.664, 14.336,32.00, 32.00,32.00
		l 96.00,0.00L 128.00,448.00 c0.00,17.68, 14.336,32.00, 32.00,32.00l 221.504,0.00 L 480.00,384.00l0.00-320.00 C 480.00,46.336, 465.664,32.00, 448.00,32.00z M 48.00,384.00C 33.60,384.736, 32.00,368.00, 32.00,368.00l0.00-340.576 C 32.00,12.288, 43.712,0.00, 58.192,0.00
		L 304.00,0.00 c 14.448,0.00, 16.00,16.00, 16.00,16.00l0.00,16.00 L 160.00,32.00 c-17.664,0.00-32.00,14.32-32.00,32.00l0.00,128.00 c-63.76,0.00-64.00,0.00-64.00,0.00l0.00,96.00 c 23.376,0.00, 44.848-0.128, 64.00-0.336L 128.00,384.00 L 48.00,384.00 z M 448.00,352.00l-64.00,0.00 
		c0.00,0.00-32.00-1.504-32.00,32.00L 352.00,448.00 L 176.00,448.00c-14.464,0.00-16.00-16.00-16.00-16.00l0.00-144.80 c 40.448-0.672, 64.496-1.552, 64.496-1.552L 224.00,352.00c 58.672-48.00, 160.00-128.00, 160.00-128.00s-149.328-128.00-160.00-128.00l0.00,96.00 
		c-25.232,0.00-46.096,0.00-64.00,0.00l0.00-112.00 c0.00-15.152, 16.00-16.00, 16.00-16.00l 256.00,0.00 c 14.448,0.00, 16.00,16.00, 16.00,16.00L 448.00,352.00 z"  />
<glyph unicode="&#xe057;" d="M 416.00,32.00 L 416.224,224.336 L 480.00,288.00 L 480.00,32.00 C 480.00,0.00 448.00-32.00 416.00-32.00 L 64.224-31.664 C 32.224-31.664 0.224,0.336 0.224,32.336 L 0.00,416.00 C 0.00,448.00 32.00,480.00 64.00,480.00 L 352.00,480.00 L 288.00,416.00 L 64.00,416.00 L 64.00,32.00 L 416.00,32.00 Z M 502.752,430.336 C 522.784,411.008 503.472,396.512 503.472,396.512 L 465.056,358.672 L 389.472,431.168 L 428.976,472.208 C 449.712,492.224 467.408,468.928 467.408,468.928 L 502.752,430.336 Z M 436.608,339.664 L 227.728,140.016 L 151.904,202.976 L 361.184,408.576 L 436.608,339.664 Z M 112.224,79.776 L 122.656,174.128 L 203.856,112.288 L 112.224,79.776 Z"  />
<glyph unicode="&#xe058;" d="M 304.00,224.00 L 416.00,112.00 L 368.00,64.00 L 256.00,176.00 L 144.00,64.00 L 96.00,112.00 L 208.00,224.00 L 96.00,336.00 L 144.00,384.00 L 256.00,272.00 L 368.00,384.00 L 416.00,336.00 Z"  />
<glyph unicode="&#xe059;" d="M 480.00,480.00C 448.00,480.00, 32.00,480.00, 32.00,480.00S0.00,480.00,0.00,448.00s0.00-448.00,0.00-448.00s0.00-32.00, 32.00-32.00s 448.00,0.00, 448.00,0.00s 32.00,0.00, 32.00,32.00s0.00,448.00,0.00,448.00
				S 512.00,480.00, 480.00,480.00z M 96.00,0.00L 48.00,0.00 l0.00,64.00 l 48.00,0.00 L 96.00,0.00 z M 96.00,96.00L 48.00,96.00 l0.00,64.00 l 48.00,0.00 L 96.00,96.00 z M 96.00,192.00L 48.00,192.00 l0.00,64.00 l 48.00,0.00 L 96.00,192.00 z M 96.00,288.00L 48.00,288.00 L 48.00,352.00 l 48.00,0.00 L 96.00,288.00 z M 96.00,384.00L 48.00,384.00 L 48.00,448.00 l 48.00,0.00 L 96.00,384.00 z M 384.00,0.00L 128.00,0.00 L 128.00,192.00 l 256.00,0.00 L 384.00,0.00 z M 384.00,256.00L 128.00,256.00 L 128.00,448.00 
				l 256.00,0.00 L 384.00,256.00 z M 464.00,0.00l-48.00,0.00 l0.00,64.00 l 48.00,0.00 L 464.00,0.00 z M 464.00,96.00l-48.00,0.00 l0.00,64.00 l 48.00,0.00 L 464.00,96.00 z M 464.00,192.00l-48.00,0.00 l0.00,64.00 l 48.00,0.00 L 464.00,192.00 z M 464.00,288.00l-48.00,0.00 L 416.00,352.00 l 48.00,0.00 L 464.00,288.00 z M 464.00,384.00l-48.00,0.00 L 416.00,448.00 l 48.00,0.00 L 464.00,384.00 z"  />
<glyph unicode="&#xe05a;" d="M 152.096,272.56L 151.60,272.56 L 128.384,201.44L 174.56,201.44 L 152.096,272.56z M 416.00,448.00c0.00,0.00-32.00-0.496-32.00,0.00c0.00,32.00-32.00,32.00-32.00,32.00S 96.00,480.00, 64.00,480.00S 32.00,448.00, 32.00,448.00s0.00-352.00,0.00-416.00
				s 64.00-64.00, 64.00-64.00l 320.00,0.00 c0.00,0.00, 32.00,0.00, 32.00,32.00c0.00,0.00,0.00,385.504,0.00,416.00S 416.00,448.00, 416.00,448.00z M 224.00,256.00l 48.00,0.00 l0.00,48.00 l 32.00,0.00 l0.00-48.00 l 48.00,0.00 l0.00-32.00 l-48.00,0.00 l0.00-48.00 l-32.00,0.00 l0.00,48.00 l-48.00,0.00 L 224.00,256.00 z M 132.128,320.336L 172.32,320.336 l 66.64-192.336
				l-40.688,0.00 l-13.488,41.664L 118.144,169.664 L 104.16,128.016L 64.736,128.016 L 132.128,320.336z M 416.00,32.00c0.00,0.00-9.904-32.00-32.00-32.00L 96.00,0.00 l-32.00,32.00l 288.00,0.00 c 31.984,0.00, 32.00,32.00, 32.00,32.00L 384.00,416.00 
				c0.00,0.00, 8.336,0.00, 16.496,0.00C 415.824,416.00, 416.00,400.00, 416.00,400.00L 416.00,32.00 z"  />
<glyph unicode="&#xe05b;" d="M 510.72,318.72l-149.776,0.544L 332.80,288.00L 480.00,288.00 l-64.00-64.00l0.00-256.00 l 96.00,160.00L 512.00,320.00 L 510.72,318.72z M 160.00,288.00l 38.40,0.00 
				l-25.504,31.872L 128.00,320.00l-128.00-96.00l0.00-256.00 l 384.00,0.00 L 384.00,224.00 L 64.00,224.00 L 160.00,288.00z M 160.00,160.00l 64.00,0.00 c 15.744,0.00, 32.00-13.504, 32.00-32.00c0.00-17.488-16.256-32.00-32.00-32.00l-64.00,0.00 c-17.744,0.00-31.008,14.512-32.00,32.00
				C 127.008,145.472, 144.256,159.008, 160.00,160.00z M 416.00,416.00l-96.00,0.00 L 320.00,480.00 l-96.00,0.00 l0.00-64.00 L 128.00,416.00 l 144.00-160.00L 416.00,416.00z"  />
</font>
</defs>
</svg>
